Завантажити та скачати торренти українською


Таємний орден / The Order (2001) 720p Ukr/Eng | Sub Ukr/Eng

Нові коментарі

Нова тема   Відповісти
Автор Повідомлення
urij546724 
Відео Гуртом - фільмокрай
Відео Гуртом - фільмокрай


З нами з: 16.03.10
Востаннє: 04.12.16
Повідомлень: 5222

2012-05-28 21:23  
Таємний орден / The Order (2001) 720p Ukr/Eng | Sub Ukr/Eng

Альтернативні постери:

Слоган:
«Unleash The Power.»


Жанр: екшн, пригодницький, комедія
Країна: США (), Аруба ()



Кіностудія / кінокомпанія: 777 Films Corporation, Millennium Films, Nu Image Films
Режисер: Шелдон Леттіч (Sheldon Lettich)
Актори: Жан-Клод Ван Дамм (Jean-Claude Van Damme), Чарлтон Хестон (Charlton Heston), Софія Мілош (Sofia Milos), Брайан Томпсон (Brian Thompson), Бен Кросс (Ben Cross), Вернон Добтчефф (Vernon Dobtcheff)
Усі актори та їх фото:
Жан-Клод Ван Дамм (Jean-Claude Van Damme), Чарлтон Хестон (Charlton Heston), Софія Мілош (Sofia Milos), Брайан Томпсон (Brian Thompson), Бен Кросс (Ben Cross), Вернон Добтчефф (Vernon Dobtcheff), Сессон Габаі (Sasson Gabai), Алон Абутбул (Alon Abutbul), Джой Томаска (Joey Tomaska), Пітер Малота (Peter Malota), Шерон Реджіньяно (Sharon Reginiano), Самі Хюрі (Sami Huri), Джек Вайдекер (Jack Widerker), Девід Лейтч (David Leitch), Абдель Кіссі (Abdel Qissi), Кеті Брейтон (Kathy Brayton), Антон Трендафілов (Anton Trendafilov), Джорджі Кадурін (Georgi Kadurin), Добрин Досев (Dobrin Dosev), Розіца Чорбаджіска (Rositza Chorbadjiska), Юрій Савчев (Yuri Safchev), Теодор Еруков (Theodor Youroukov), Сімеон Владов (Simeon Vladov)



Сюжет:
Невтомний шукач пригод Руді Кафмаєр, який промишляє добуванням унікальних творів мистецтва і рідкісних чудасій для багатих колекціонерів, відправляється в Ізраїль на пошуки свого зниклого батька, який складав літопис стародавньої таємничої секти «Орден».

В Єрусалимі за авантюристом зі скандальною репутацією відразу починають полювати наймані вбивці і поліція на чолі з відважною Далією Барр, яка не раз врятує Руді життя під час запаморочливих погонь і скажених перестрілок на вузьких вуличках древнього міста, перш ніж йому вдасться викрити глобальну змову божевільного ватажка «Ордену», який прагне почати нову Священну війну й встановити на Землі владу крові й терору.


Бюджет: 25 000 000 доларів
Назва фільму у інших країнах
The Order
Італія (відеоназва) / Іспанія


A Irmandade
Бразилія


A rend őrzője
Угорщина


Jihad Warrior
Філіппіни (Англійська назва)


La orden de la muerte
Аргентина


The Order: Cruzada Final
Португалія


Тайна ордена
Росія
Media info
General
Unique ID : 214541411023681984857528779866193851610 (0xA1672C3B521025FF803726A88EA0F4DA)
Complete name : J:\1\The Order (2001) [ukr.Noviy_eng_DTS_5.1, sub] 720p [Hurtom] by urij546724.mkv
Format : Matroska
Format version : Version 2
File size : 5.31 GiB
Duration : 1h 29mn
Overall bit rate : 8 508 Kbps
Movie name : The Order (2001) [ukr.Noviy_eng_DTS_5.1, sub ukr_eng] 720p [Hurtom] by urij546724
Encoded date : UTC 2012-05-27 19:17:31
Writing application : mkvmerge v2.9.7 ('Tenderness') built on Jul 1 2009 18:43:35
Writing library : libebml v0.7.7 + libmatroska v0.8.1

Video
ID : 1
Format : AVC
Format/Info : Advanced Video Codec
Format profile : [email protected]
Format settings, CABAC : Yes
Format settings, ReFrames : 5 frames
Codec ID : V_MPEG4/ISO/AVC
Duration : 1h 29mn
Bit rate : 5 490 Kbps
Width : 1 280 pixels
Height : 696 pixels
Display aspect ratio : 16:9
Frame rate : 23.976 fps
Color space : YUV
Chroma subsampling : 4:2:0
Bit depth : 8 bits
Scan type : Progressive
Bits/(Pixel*Frame) : 0.257
Stream size : 3.32 GiB (63%)
Title : The Order (2001) [ukr.Noviy_eng_DTS_5.1, sub ukr_eng] 720p [Hurtom] by urij546724
Writing library : core 122 r2184 5c85e0a
Encoding settings : cabac=1 / ref=5 / deblock=1:0:0 / analyse=0x3:0x113 / me=umh / subme=8 / psy=1 / psy_rd=1.00:0.00 / mixed_ref=1 / me_range=16 / chroma_me=1 / trellis=1 / 8x8dct=1 / cqm=0 / deadzone=21,11 / fast_pskip=1 / chroma_qp_offset=-2 / threads=12 / sliced_threads=0 / nr=0 / decimate=1 / interlaced=0 / bluray_compat=0 / constrained_intra=0 / bframes=3 / b_pyramid=2 / b_adapt=2 / b_bias=0 / direct=3 / weightb=1 / open_gop=0 / weightp=2 / keyint=240 / keyint_min=24 / scenecut=40 / intra_refresh=0 / rc_lookahead=50 / rc=2pass / mbtree=1 / bitrate=5490 / ratetol=1.0 / qcomp=0.60 / qpmin=0 / qpmax=69 / qpstep=4 / cplxblur=20.0 / qblur=0.5 / ip_ratio=1.40 / aq=1:1.00
Language : English
Default : Yes
Forced : No

Audio #1
ID : 2
Format :
Format/Info : Digital Theater Systems
Codec ID : A_DTS
Duration : 1h 29mn
Bit rate mode : Constant
Bit rate : 1 510 Kbps
Channel(s) : 6 channels
Channel positions : Front: L C R, Side: L R, LFE
Sampling rate : 48.0 KHz
Bit depth : 24 bits
Compression mode : Lossy
Stream size : 965 MiB (18%)
Title : Українська доріжка. Запис з Нового каналу
Language : Ukrainian
Default : Yes
Forced : No

Audio #2
ID : 3
Format :
Format/Info : Digital Theater Systems
Codec ID : A_DTS
Duration : 1h 29mn
Bit rate mode : Constant
Bit rate : 1 510 Kbps
Channel(s) : 6 channels
Channel positions : Front: L C R, Side: L R, LFE
Sampling rate : 48.0 KHz
Bit depth : 24 bits
Compression mode : Lossy
Delay relative to video : 11ms
Stream size : 965 MiB (18%)
Title : Англійська доріжка
Language : English
Default : No
Forced : No

Text #1
ID : 4
Format : UTF-8
Codec ID : S_TEXT/UTF8
Codec ID/Info : UTF-8 Plain Text
Title : Українські субтитри
Language : Ukrainian
Default : Yes
Forced : No

Text #2
ID : 5
Format : UTF-8
Codec ID : S_TEXT/UTF8
Codec ID/Info : UTF-8 Plain Text
Title : Англійські субтитри
Language : English
Default : No
Forced : No

Menu
00:00:00.000 : en:00:00:00.000
00:04:50.749 : en:00:04:50.749
00:10:09.984 : en:00:10:09.984
00:16:26.944 : en:00:16:26.944
00:20:53.711 : en:00:20:53.711
00:25:11.927 : en:00:25:11.927
00:29:16.964 : en:00:29:16.964
00:34:48.420 : en:00:34:48.420
00:39:24.070 : en:00:39:24.070
00:44:15.236 : en:00:44:15.236
00:49:50.696 : en:00:49:50.696
00:55:47.636 : en:00:55:47.636
01:00:31.962 : en:01:00:31.962
01:07:34.884 : en:01:07:34.884
01:11:41.964 : en:01:11:41.964
01:20:01.255 : en:01:20:01.255
Тривалість: 01:29:22
Якість: 720p
Відео:
кодек:
розмір кадру: 1280 х 696
бітрейт: ~ 5490 кб/с
частота кадрів: 23.976 к/с (fps)

Аудіо #1:
мова: українська
переклад: двоголосий закадровий
кодек: 5.1
бітрейт: 1536 кб/с
запис звуку з каналу:

Аудіо #2:
мова: англійська
переклад: оригінал
кодек: 5.1
бітрейт: 1536 кб/с

Субтитри #1:
мова: українська
тип: програмні (м'які)
формат: *.srt
переклад: з російської urij546724

Субтитри #2:
мова: англійська
тип: програмні (м'які)
формат: *.srt

Скріншоти:

Трейлер:



Семпл
Джерело 1_________Джерело 2_________Джерело 3
У випадку, якщо з усіх джерел семпл видалять, прохання повідомити мені у ПРИВАТ


Подяка:

1. Пану dvorsky і Пану Hulk1987 за запис звуку з ТБ.


Реліз створено: &

Особиста оцінка: Ще не дивився.

Реліз не зберігатиму, видалю після появи кількох сідів.


Срібний реліз (на рейтинг впливає 50% завантаженого)
 Трекер:    Зареєстрований   

Завантажити / скачати фільм українською



відео для новачків



 Зареєстрований:   2012-05-29 13:00
 Розмір:   5.31 GB 
 Оцінка фільму:   6.9/10 (Голосів: 9)
 Прохання залишати коментарі і не тікати з роздачі.
   
Інші релізи
Rah 
VIP


З нами з: 02.08.09
Востаннє: 30.11.16
Повідомлень: 307

2012-12-20 01:56  
класно українська
переклад: двоголосий закадровий
кодек: 5.1
бітрейт: 1536 кб/с чому усі так не роблять

Ваш часовий пояс: GMT + 2 Години

Нова тема   Відповісти