Завантажити та скачати торренти українською


Квінтет кобз "Коло" - Коло (2006) [FLAC] | Classical

Нові коментарі

Нова тема   Відповісти
Останній раз роздавалося ssTAss (2016-12-09)
Автор Повідомлення
ssTAss 
Модератор музики


З нами з: 05.07.08
Востаннє: 09.12.16
Повідомлень: 10949

2012-05-28 15:41  
Квінтет кобз "Коло" - Коло (2006) [FLAC] | Classical

Квінтет кобз "Коло" - Коло (2006) [FLAC] | Classical


Стиль: Classic
Країна, місто: Україна, Київ
Сайти: Офіційний сайт
Видавець: невідомий
Виконавці:
Людмила Шорошева - художній керівник, перша кобза
Брусянська Вікторія - друга кобза
Юрків Ілона - третя кобза
Радченко Антоніна - кобза-тенор
Гері Наталя - кобза-бас
Пісні:
    01 - А. Вівальді. Концерт для двох мандолін та камерного оркестру соль мажор - 1.Allegro
    02 - А. Вівальді. Концерт для двох мандолін та камерного оркестру соль мажор - 2.Andante
    03 - А. Вівальді. Концерт для двох мандолін та камерного оркестру соль мажор - 3.Allegro
    04 - В. Моцарт. Маленька нічна серенада. Menuetto
    05 - В. Моцарт. Маленька нічна серенада. Rondo
    06 - С. Лукін. Варіації на тему Паганіні
    07 - Є. Мілка. Коломийки - 1.Allegro
    08 - Є. Мілка. Коломийки - 2.Moderato con moto
    09 - Є. Мілка. Коломийки - 3.Allegretto
    10 - Є. Мілка. Коломийки - 4.Allegro
    11 - В. Зубицький. Сюїта 'Українські танки' - 1.Західно-український танок
    12 - В. Зубицький. Сюїта 'Українські танки' - 2.Вальс-скерцо
    13 - В. Зубицький. Сюїта 'Українські танки' - 3.Веснянка
    14 - В. Зубицький. Сюїта 'Українські танки' - 4.Марш-скерцо
    15 - О. Циганков. Чардаш
log
Exact Audio Copy V1.0 beta 3 from 29. August 2011

Отчёт EAC об извлечении, выполненном 12. мая 2012, 23:30

Квинтет кобз "Коло" / Квинтет кобз "Коло"

Дисковод: SONY DVD RW AW-G170A Adapter: 0 ID: 0

Режим чтения : Достоверность
Использование точного потока : Да
Отключение кэша аудио : Да
Использование указателей C2 : Нет

Коррекция смещения при чтении : 48
Способность читать области Lead-in и Lead-out : Нет
Заполнение пропущенных сэмплов тишиной : Да
Удаление блоков с тишиной в начале и конце : Нет
При вычислениях CRC использовались нулевые сэмплы : Да
Интерфейс : Встроенный Win32-интерфейс для Win NT/2000

Выходной формат : Пользовательский кодировщик
Выбранный битрейт : 128 kBit/s
Качество : Высокий
Добавление ID3-тега : Нет
Утилита сжатия : C:\Program Files\Exact Audio Copy\Flac\flac.exe
Дополнительные параметры : -V -8 -T "Date=%year%" -T "Genre=%genre%" %source%

TOC извлечённого CD

Трек | Старт | Длительность | Начальный сектор | Конечный сектор
---------------------------------------------------------------------
1 | 0:00.00 | 3:57.47 | 0 | 17821
2 | 3:57.47 | 5:04.02 | 17822 | 40623
3 | 9:01.49 | 3:01.72 | 40624 | 54270
4 | 12:03.46 | 2:06.54 | 54271 | 63774
5 | 14:10.25 | 3:38.40 | 63775 | 80164
6 | 17:48.65 | 7:46.44 | 80165 | 115158
7 | 25:35.34 | 1:10.67 | 115159 | 120475
8 | 26:46.26 | 1:49.69 | 120476 | 128719
9 | 28:36.20 | 1:43.13 | 128720 | 136457
10 | 30:19.33 | 1:17.61 | 136458 | 142293
11 | 31:37.19 | 1:12.32 | 142294 | 147725
12 | 32:49.51 | 1:20.39 | 147726 | 153764
13 | 34:10.15 | 1:25.22 | 153765 | 160161
14 | 35:35.37 | 2:41.70 | 160162 | 172306
15 | 38:17.32 | 5:18.63 | 172307 | 196219

Характеристики диапазона извлечения и сообщения об ошибках

Выбранный диапазон

Имя файла C:\Documents and Settings\Алексей\Рабочий стол\Квинтет кобз -КОЛО-\Квинтет кобз ''Коло'' - Квинтет кобз ''Коло''.wav

Пиковый уровень 100.0 %
Скорость извлечения 5.0 X
Качество диапазона 100.0 %
CRC теста FAFE29BA
CRC копии FAFE29BA
Копирование... OK

Ошибок не произошло

Конец отчёта

==== Контрольная сумма отчёта 4ED86B5CC31F8CF573970666CDD14635BBE80E437F852C5FE60D2C483C5BE2F0 ====
fooCDtect
fooCDtect - foobar2000 + auCDtect, baralgin.

auCDtect: CD records authenticity detector, version 0.8.2
Copyright (c) 2004 Oleg Berngardt. All rights reserved.
Copyright (c) 2004 Alexander Djourik. All rights reserved.

mode: 0

===========================================
Track: 01 - А. Вівальді. Концерт для двох мандолін та камерного оркестру соль мажор - 1.Allegro
Quality: CDDA 85%
===========================================
Track: 02 - А. Вівальді. Концерт для двох мандолін та камерного оркестру соль мажор - 2.Andante
Quality: CDDA 43%
===========================================
Track: 03 - А. Вівальді. Концерт для двох мандолін та камерного оркестру соль мажор - 3.Allegro
Quality: CDDA 92%
===========================================
Track: 04 - В. Моцарт. Маленька нічна серенада. Menuetto
Quality: CDDA 76%
===========================================
Track: 05 - В. Моцарт. Маленька нічна серенада. Rondo
Quality: CDDA 100%
===========================================
Track: 06 - С. Лукін. Варіації на тему Паганіні
Quality: CDDA 100%
===========================================
Track: 07 - Є. Мілка. Коломийки - 1.Allegro
Quality: CDDA 100%
===========================================
Track: 08 - Є. Мілка. Коломийки - 2.Moderato con moto
Quality: CDDA 49%
===========================================
Track: 09 - Є. Мілка. Коломийки - 3.Allegretto
Quality: CDDA 100%
===========================================
Track: 10 - Є. Мілка. Коломийки - 4.Allegro
Quality: CDDA 99%
===========================================
Track: 11 - В. Зубицький. Сюїта 'Українські танки' - 1.Західно-український танок
Quality: CDDA 86%
===========================================
Track: 12 - В. Зубицький. Сюїта 'Українські танки' - 2.Вальс-скерцо
Quality: CDDA 54%
===========================================
Track: 13 - В. Зубицький. Сюїта 'Українські танки' - 3.Веснянка
Quality: CDDA 92%
===========================================
Track: 14 - В. Зубицький. Сюїта 'Українські танки' - 4.Марш-скерцо
Quality: CDDA 76%
===========================================
Track: 15 - О. Циганков. Чардаш
Quality: CDDA 54%
===========================================
Тривалість: 00:43:36
Мова: відсутня
Аудіо-кодек: FLAC
Бітрейт: 585 кб/с
Джерело: інший трекер
Додаткова інформація:
Кобза прийшла до нас із глибини віків, якимось незбагненним дивом зберігши в собі рідкісне поєднання дзвінкоголосого колориту та нуртуючого оксамитового тембру, що є золотим перетином звучання душі старовинного українського музичного інструменту, якому раніше належало супроводжувати народні думи, плачі тощо. Музика цього унікального диску повністю змінює усталене уявлення про архаїчну кобзу, її звуковий образ. Ми стаємо свідками справжнього дива: уперше українській кобзі підвладні твори різних стилів та епох! Спостерігаючи ж неухильний поступ народного інструментарію в бік охоплення чільних позицій на академічній сцені (надто ж – досягнення у виконавстві на споріднених із кобзою домрі, бандурі, гітарі, мандоліні), радіємо й за предковічну нашу кобзу! Отже, це перший подібний диск, та водночас – диск-презентація квінтету кобз «Коло», заснованого 2004 р. у НМАУ імені П.І. Чайковського старшим викладачем кафедри народних інструментів, лауреатом міжнародних конкурсів Людмилою Шорошевою, – яскраво-артистичною та блискуче-віртуозною виконавицею на кобзі та домрі.
У квінтеті їй належить партія першої кобзи та солюючий голос у творах для кобзи-соло; друга кобза – Брусянська Вікторія; третя кобза – Юрків Ілона; кобза-тенор – Радченко Антоніна; кобза-бас – Гері Наталя. Концерти квінтету кобз тривають цілорічно; «Коло» вже має своїх слухачів, маленький гастрольний план і велике творче майбуття!


Якщо Ви справді бажаєте підтримати українське - після прослуховування, якщо музика вам сподобалась,
придбайте ліцензійний диск.
Підтримаймо вітчизняних виконавців!


Срібний реліз (на рейтинг впливає 50% завантаженого)
 Трекер:    Зареєстрований   

Завантажити / скачати українську музику



відео для новачків



 Зареєстрований:   2012-05-28 15:41
 Розмір:   189 MB 
 Оцінка музики:   7/10 (Голосів: 9)
   
Ваш часовий пояс: GMT + 2 Години

Нова тема   Відповісти