Завантажити та скачати торренти українською


Шосте чуття / The Sixth Sense (1999) 1080p Ukr/Eng | Sub Ukr/Eng

Нові коментарі

Нова тема   Відповісти
Автор Повідомлення
ratbol 
Модератор HD


З нами з: 03.02.09
Востаннє: 10.12.16
Повідомлень: 1088

2012-05-27 17:54  
Шосте чуття / The Sixth Sense (1999) 1080p Ukr/Eng | Sub Ukr/Eng


« Not every gift is a blessing. »

Жанр: драма, містика, трилер
Країна: США



Кіностудія / кінокомпанія: Barry Mendel Productions, Hollywood Pictures
Режисер: М. Найт Шьямалан (M. Night Shyamalan)
Актори: Брюс Вілліс (Bruce Willis), Хейлі Джоел Осмент (Haley Joel Osment), Тоні Коллетт (Toni Collette), Олівія Вільямс (Olivia Williams), Тревор Морган (Trevor Morgan), Доні Волберґ (Donnie Wahlberg), Пітер Ентоні Тембекіс (Peter Anthony Tambakis) та інші.

Сюжет:
Дитячий психіатр Малкольм Кроу стикається з дивним випадком: восьмилітнього Коула відвідують страшні видіння - примари померлих. Всі ці люди колись були вбиті, і тепер вони обрушують на малюка свій гнітючий страх і відчайдушний гнів. Як лікар, Малкольм безсилий допомогти. Але як людина, він намагається знайти ключ до жахливого світу Коула, в якому віє дихання смерті і розпускаються страшні квіти болю.


Тривалість: 01:47:22
Якість:
Відео:
кодек:
розмір кадру: 1920 х 1080
бітрейт: 12.2 Мбіт/с

Аудіо # 1:
мова: українська
переклад: багатоголосий закадровий
кодек: 5.1
бітрейт: 384 Кбіт/с

Аудіо # 2:
мова: англійська
переклад: оригінал
кодек: 5.1
бітрейт: 1536 Кбіт/с

Джерело озвучення:


Субтитри # 1:
мова: українська
тип: програмні (м'які)
формат: *.srt

Субтитри # 2:
мова: англійська
тип: програмні (м'які)
формат: *.srt

MediaInfo
Код:
General
Unique ID                        : 175005501688896519556829686571018291355 (0x83A8D567B20357A39EE3BFD48005089B)
Complete name                    : E:\movie releases\Шосте чуття\Finished\The Sixth Sense (1999) [Ukr, Eng. Sub — Ukr, Eng] 1080p [Hurtom].mkv
Format                           : Matroska
Format version                   : Version 2
File size                        : 10.6 GiB
Duration                         : 1h 47mn
Overall bit rate                 : 14.1 Mbps
Movie name                       : The sixth sense (1999) [Hurtom]
Encoded date                     : UTC 2012-05-27 07:28:40
Writing application              : mkvmerge v5.4.0 ('Piper') built on Mar 10 2012 13:34:39
Writing library                  : libebml v1.2.3 + libmatroska v1.3.0

Video
ID                               : 1
Format                           : AVC
Format/Info                      : Advanced Video Codec
Format profile                   : [email protected]
Format settings, CABAC           : Yes
Format settings, ReFrames        : 4 frames
Codec ID                         : V_MPEG4/ISO/AVC
Duration                         : 1h 47mn
Bit rate                         : 12.2 Mbps
Width                            : 1 920 pixels
Height                           : 1 080 pixels
Display aspect ratio             : 16:9
Frame rate                       : 23.976 fps
Color space                      : YUV
Chroma subsampling               : 4:2:0
Bit depth                        : 8 bits
Scan type                        : Progressive
Bits/(Pixel*Frame)               : 0.246
Stream size                      : 8.95 GiB (85%)
Title                            : Ріп від ratbol
Writing library                  : core 120 r2164 da19765
Encoding settings                : cabac=1 / ref=4 / deblock=1:-3:-3 / analyse=0x3:0x133 / me=tesa / subme=11 / psy=1 / psy_rd=1.00:0.15 / mixed_ref=1 / me_range=24 / chroma_me=1 / trellis=2 / 8x8dct=1 / cqm=0 / deadzone=21,11 / fast_pskip=0 / chroma_qp_offset=-3 / threads=12 / sliced_threads=0 / nr=0 / decimate=1 / interlaced=0 / bluray_compat=0 / constrained_intra=0 / bframes=8 / b_pyramid=2 / b_adapt=2 / b_bias=0 / direct=3 / weightb=1 / open_gop=0 / weightp=2 / keyint=240 / keyint_min=23 / scenecut=40 / intra_refresh=0 / rc_lookahead=60 / rc=2pass / mbtree=1 / bitrate=12220 / ratetol=1.0 / qcomp=0.60 / qpmin=0 / qpmax=69 / qpstep=4 / cplxblur=20.0 / qblur=0.5 / ip_ratio=1.40 / aq=1:1.00
Language                         : English
Default                          : Yes
Forced                           : No

Audio #1
ID                               : 2
Format                           : AC-3
Format/Info                      : Audio Coding 3
Mode extension                   : CM (complete main)
Codec ID                         : A_AC3
Duration                         : 1h 47mn
Bit rate mode                    : Constant
Bit rate                         : 384 Kbps
Channel(s)                       : 6 channels
Channel positions                : Front: L C R, Side: L R, LFE
Sampling rate                    : 48.0 KHz
Bit depth                        : 16 bits
Compression mode                 : Lossy
Delay relative to video          : -917ms
Stream size                      : 295 MiB (3%)
Title                            : 5.1 [384 Kbps] — двоголосий закадровий, 2+2
Language                         : Ukrainian
Default                          : Yes
Forced                           : No

Audio #2
ID                               : 3
Format                           :
Format/Info                      : Digital Theater Systems
Codec ID                         : A_DTS
Duration                         : 1h 47mn
Bit rate mode                    : Constant
Bit rate                         : 1 510 Kbps
Channel(s)                       : 6 channels
Channel positions                : Front: L C R, Side: L R, LFE
Sampling rate                    : 48.0 KHz
Bit depth                        : 16 bits
Compression mode                 : Lossy
Stream size                      : 1.13 GiB (11%)
Title                            : 5.1 [1536 Kbps] — оригінал
Language                         : English
Default                          : No
Forced                           : No

Text #1
ID                               : 4
Format                           : UTF-8
Codec ID                         : S_TEXT/UTF8
Codec ID/Info                    : UTF-8 Plain Text
Language                         : Ukrainian
Default                          : No
Forced                           : No

Text #2
ID                               : 5
Format                           : UTF-8
Codec ID                         : S_TEXT/UTF8
Codec ID/Info                    : UTF-8 Plain Text
Language                         : English
Default                          : No
Forced                           : No
log
Код:
-[NoImage] raw [info]: 1920x1080p 1:1 @ 24000/1001 fps (cfr)
-[NoImage] [info]: using SAR=1/1
-[NoImage] [info]: using cpu capabilities: MMX2 SSE2Fast SSSE3 FastShuffle SSE4.2 AVX
-[NoImage] [info]: profile High, level 4.1
-[NoImage]
-[NoImage] [info]: frame I:869   Avg QP:15.51  size:236553
-[NoImage] [info]: frame P:28403 Avg QP:17.73  size:114724
-[NoImage] [info]: frame B:125173 Avg QP:20.90  size: 50899
-[NoImage] [info]: consecutive B-frames:  1.5%  0.8%  2.1%  4.8%  9.5% 71.6%  7.7%  0.9%  1.1%
-[NoImage] [info]: mb I  I16..4: 23.1% 61.5% 15.5%
-[NoImage] [info]: mb P  I16..4:  4.2% 18.0%  1.7%  P16..4: 27.0% 29.5%  7.3%  1.9%  0.1%    skip:10.2%
-[NoImage] [info]: mb B  I16..4:  0.6%  1.8%  0.1%  B16..8: 50.6% 17.8%  2.3%  direct: 7.3%  skip:19.5%  L0:49.0% L1:36.9% BI:14.1%
-[NoImage] [info]: 8x8 transform intra:73.0% inter:51.7%
-[NoImage] [info]: direct mvs  spatial:98.2% temporal:1.8%
-[NoImage] [info]: coded y,uvDC,uvAC intra: 88.2% 79.1% 47.1% inter: 43.8% 43.9% 3.0%
-[NoImage] [info]: i16 v,h,dc,p: 37%  8% 31% 24%
-[NoImage] [info]: i8 v,h,dc,ddl,ddr,vr,hd,vl,hu: 12%  6% 14%  9% 12% 12% 10% 11% 12%
-[NoImage] [info]: i4 v,h,dc,ddl,ddr,vr,hd,vl,hu: 17%  7% 19%  7% 10% 11%  9%  9% 10%
-[NoImage] [info]: i8c dc,h,v,p: 41% 29% 20% 10%
-[NoImage] [info]: Weighted P-Frames: Y:3.8% UV:1.8%
-[NoImage] [info]: ref P L0: 55.4%  6.6% 27.0% 10.6%  0.3%  0.0%
-[NoImage] [info]: ref B L0: 86.7% 10.1%  3.2%
-[NoImage] [info]: ref B L1: 95.6%  4.4%
-[NoImage] [info]: kb/s:12214.54
-[NoImage] encoded 154445 frames, 1.71 fps, 12214.54 kb/s
Скріншоти
Source / Encode








Подяка _oles за синхронізацію доріжки, Technomate — запис звуку з ТБ,
greyknightnemo та w2958l — за переклад та редагування субтитрів та Igrik — за постер


Джерело: + власний ріп
Особиста оцінка: 10


Золотий реліз (завантажене не впливає на рейтинг)
 Трекер:    Зареєстрований   

Завантажити / скачати фільм українською



відео для новачків



 Зареєстрований:   2012-05-27 17:54
 Розмір:   10.58 GB 
 Оцінка фільму:   10/10 (Голосів: 7)
   
Інші релізи
ANDROSHA 
Частий відвідувач


З нами з: 13.09.09
Востаннє: 09.12.16
Повідомлень: 38

2012-05-27 20:15  
хотілось би 720p
ratbol 
Модератор HD


З нами з: 03.02.09
Востаннє: 10.12.16
Повідомлень: 1088

2012-05-27 20:23  
ANDROSHA
Думаю скоро хтось викладе.
Головне, що звук уже є.

braveboy 
Відео Гуртом - команда HD
Відео Гуртом - команда HD


З нами з: 15.06.10
Востаннє: 29.10.16
Повідомлень: 958

2012-05-27 20:28  
ratbol
я вже раз писав
Правила оформлення релізів в розділі HD
- світлини під спойлером з порівнянням з джерелом, які розташовуються покадрово по вертикалі - оригінал vs. власне.

невже так важко перед викладенням реліза почитати правила

ratbol 
Модератор HD


З нами з: 03.02.09
Востаннє: 10.12.16
Повідомлень: 1088

2012-05-27 20:34  
braveboy
От напише модератор, тоді й поміняю.

Givi 
Модератор відео


З нами з: 25.02.08
Востаннє: 08.12.16
Повідомлень: 2862

2012-05-28 06:45  
Перевірку поставив, але скріншоти вибудуйте у порядку, зазначеному у правилах:
Цитата:
5. Якщо викладається реліз, в якому міститься відео, що особисто зроблене, то має бути ще додано:
- лог кодування;
- світлини під спойлером з порівнянням з джерелом, які розташовуються покадрово по вертикалі - оригінал vs. власне.


Додано через 10 хвилин 14 секунд:

То я вже й поміняв Happy

braveboy 
Відео Гуртом - команда HD
Відео Гуртом - команда HD


З нами з: 15.06.10
Востаннє: 29.10.16
Повідомлень: 958

2012-05-28 06:53  
Givi написано:
То я вже й поміняв Happy


Givi
тут теж треба поміняти http://toloka.to/t36626

Givi 
Модератор відео


З нами з: 25.02.08
Востаннє: 08.12.16
Повідомлень: 2862

2012-05-28 07:02  
braveboy написано:

Givi
тут теж треба поміняти http://toloka.to/t36626


Добже Wink (1)

ratbol 
Модератор HD


З нами з: 03.02.09
Востаннє: 10.12.16
Повідомлень: 1088

2012-05-28 11:16  
Givi
Не думав, що це так принципово, DiGen в Горішку нічого не казав за скріншоти.
Я надіявся на срібельце...?

DiGen 
Модератор HD та координатор Команди HD
Модератор HD та координатор Команди HD


З нами з: 12.11.09
Востаннє: 24.06.13
Повідомлень: 1452

2012-05-28 11:59  
ratbol, хіба модератор зобов'язаний всі правила вписувати в кожній темі? Модератор може вказати не необхідні корективи.
Срібло дав.
Щодо Горішка, то я ж сподівався на те, що необхідні правки будуть внесені.

ratbol 
Модератор HD


З нами з: 03.02.09
Востаннє: 10.12.16
Повідомлень: 1088

2012-05-28 12:20  
DiGen написано:
Щодо Горішка, то я ж сподівався на те, що необхідні правки будуть внесені.

Це що жарт?
Я не екстрасенс, щоб знати на що ви сподіваєтесь.

Бойовий кінь / War Horse (2011) 1080p Ukr/Eng | Sub Ukr/Eng
DiGen написано:
Прохання дописати, що збережені оригінальні чаптери.

Тут ви могли написати таку дрібницю, було написати і там.

Vitala9 
Поважний учасник


З нами з: 03.01.10
Востаннє: 10.12.16
Повідомлень: 209

2012-07-06 13:43  
Дивився на одному диханні
Ваш часовий пояс: GMT + 2 Години

Нова тема   Відповісти