Завантажити та скачати торренти українською


Я повернусь до тебе з вітром / Windstruck / 내 여자친구를 소개합니다 (2004) KOR | sub Ukr

Нові коментарі

Нова тема   Відповісти
Останній раз роздавалося holos_prof (2014-06-17)
Автор Повідомлення
destiny 
Свій


З нами з: 09.04.10
Востаннє: 09.11.13
Повідомлень: 92

2012-05-27 10:56  
Я повернусь до тебе з вітром / Windstruck / 내 여자친구를 소개합니다 (2004) KOR | sub Ukr

Я повернусь до тебе з вітром / Windstruck / 내 여자친구를 소개합니다 (2004) KOR | sub Ukr


Жанр: корейська драма, бойовик, мелодрама, екшн, містерія
Країна: Південна Корея



Кіностудія / кінокомпанія: I film Co.Ltd, Surprises Ltd., EDKO film
Режисер: Чже Юн Квак (곽재용)
Актори: Джун Джи Х’юн (전지현), Хюк Янг (장혁), Кім Су Ро (김수로), Кі Ву-Лі (이기우), Чан Вонг-Кім (김창완)

Сюжет:
Стук-стук... Подув вітер... Перед очима промайнуло пів життя. Меланхолійна картина, що нагадує осінь чи не так?
Двоє людей знайшли себе через банальну випадковість. Вони могли стати ворогами, але фатум вирішив інакше. Життя і смерть переплітаються невидимими тенетами і реальність нагадує невловимий сон. Містерія "кої" і "шіне", в якій перша переможе, з’являючи світу божественну істину буття - дещо здатне подолати час і простір, а з ними й смерть. Що це? Шукайте відповідь в цьому чудовому фільмі.

___________________________________________
Кіно про людей, які живуть, а не просто існують.
Присвячується творчості корейської акторки Джун Джи Х’юн.
Переклад діалектом смаженого пінгвіна - де мат, відправили в "ад".


Тривалість: "02:03:00"
Якість:
Відео:
кодек:
розмір кадру: 704 х 288
бітрейт: 689 кб/с

Аудіо:
мова: корейська
переклад: оригінал
кодек:
бітрейт: 96,0 кб/с

Субтитри:
мова: українська (адаптований переклад)
тип: програмні (м'які)
формат: *.srt

Постери:

Скріншоти:




Джерело:Destinyua project
Особиста оцінка: 10 - без зайвих вагань рекомендую всім!


Золотий реліз (завантажене не впливає на рейтинг)
 Трекер:    Зареєстрований   

Завантажити / скачати фільм українською



відео для новачків



 Зареєстрований:   2012-07-01 12:19
 Розмір:   700 MB 
 Оцінка фільму:   10/10 (Голосів: 5)
 Присячується Джун та Гуртом-толоці
   
destiny 
Свій


З нами з: 09.04.10
Востаннє: 09.11.13
Повідомлень: 92

2012-05-27 11:03  
Реліз редагується...

Додано через 2 хвилини 39 секунд:

Попередні релізи

Чувак нізвідки / 아저씨 / The man from Nowhere (2010) AVC Kor | sub Ukr
http://toloka.to/t33204
Покинута Зая / Usagi Doroppu / うさぎドロップ / (3 з 11) (2011) AVC Jap | sub Ukr
http://toloka.to/t29258
71 у вогні / 71: Into the Fire / Pohwasogeuro (2010) KOR | sub UKR
http://toloka.to/t27251
Вона на завданні / She's on Duty / Jambok-geunmu / 잠복근무 (2005) Kor | sub Ukr
http://toloka.to/t27060
Шірі / Shiri / 쉬리 (1999) KOR, ENG| sub UKR
http://toloka.to/t28580
Пастка / Dragnet girl / Hijosen no onna / 非常線の女 (1933) Jap | sub Ukr
http://toloka.to/t27250
Дівчина Сніжинка / The Snow Woman / Kaidan yukijorô (1968) Jap | sub Ukr
http://toloka.to/t27252
Якось в Сеулі або Хлопці не плачуть / Once Upon a Time in Seoul /소년은 울지 않는다 (2007) KOR | sub Ukr
http://toloka.to/t29631
Додано через 3 хвилини 9 секунд:
ТролінгботМедіяінфодот

General
Complete name : E:\Windstruck.2004....2CH.avi
Format : AVI
Format/Info : Audio Video Interleave
File size : 700 MiB
Duration : 2h 3mn
Overall bit rate : 795 Kbps
Writing application : Nandub v1.0rc2
Writing library : Nandub build 1852/release

Video
ID : 0
Format : MPEG-4 Visual
Format profile : Advanced [email protected]
Format settings, BVOP : 1
Format settings, QPel : No
Format settings, GMC : No warppoints
Format settings, Matrix : Custom
Muxing mode : Packed bitstream
Codec ID :
Codec ID/Hint :
Duration : 2h 3mn
Bit rate : 689 Kbps
Width : 704 pixels
Height : 288 pixels
Display aspect ratio : 2.40:1
Frame rate : 23.976 fps
Color space : YUV
Chroma subsampling : 4:2:0
Bit depth : 8 bits
Scan type : Progressive
Compression mode : Lossy
Bits/(Pixel*Frame) : 0.142
Stream size : 607 MiB (87%)
Writing library : 1.0.0 RC4 (Hola) (UTC 2004-04-05)

Audio
ID : 1
Format : AC-3
Format/Info : Audio Coding 3
Mode extension : CM (complete main)
Format settings, Endianness : Big
Codec ID : 2000
Duration : 2h 3mn
Bit rate mode : Constant
Bit rate : 96.0 Kbps
Channel(s) : 2 channels
Channel positions : Front: L R
Sampling rate : 48.0 KHz
Bit depth : 16 bits
Compression mode : Lossy
Delay relative to video : 16ms
Stream size : 84.6 MiB (12%)
Alignment : Split accross interleaves
Interleave, duration : 42 ms (1.00 video frame)
[/center]

destiny 
Свій


З нами з: 09.04.10
Востаннє: 09.11.13
Повідомлень: 92

2012-07-01 12:21  
Сталася тупа помилка видалив торент і перезареєстрував.
HetmanNet 
VIP


З нами з: 20.03.09
Востаннє: 03.12.16
Повідомлень: 425

2012-07-01 13:03  
Було би добре його озвучити..
Ваш часовий пояс: GMT + 2 Години

Нова тема   Відповісти