Завантажити та скачати торренти українською


Том Сойєр / Tom Sawyer (2011) 720p Ukr/Ger | Sub Eng/Ger

Нові коментарі

Нова тема   Відповісти
Автор Повідомлення
xfsthe 
Оцифрування книг Гуртом
Оцифрування книг Гуртом


З нами з: 13.02.11
Востаннє: 04.12.16
Повідомлень: 279

2012-05-26 15:19  
Том Сойєр / Tom Sawyer (2011) 720p Ukr/Ger | Sub Eng/Ger

Том Сойєр / Tom Sawyer (2011) 720p Ukr/Ger | Sub Eng/Ger


Жанр: пригодницький, сімейний
Країна: Німеччина



Кіностудія / кінокомпанія: Neue Schonhauser Filmproduktion, Majestic Filmproduktion, ARD Degeto Film
Режисер: Гермін Гунтерберт
Актори: Луїс Гофман, Леон Зайдель, Хайке Макатч, Бенно Фюрман, Йоахім Круль, Пітер Лохмевер та інші.

Сюжет:
Хто не знає веселих забіяк Тома Сойєра і Гекльберрі Фінна, що живуть на березі річки Міссісіпі? Вірним друзям завжди є чим зайнятися: будь то ігри в піратів, крадіжка яблук чи варення з комори, риболовля, а також глузування над дорослими. Нестримна фантазія приводить Тома і Гека вночі на цвинтар, де вони стають свідками таємничого злочину, з якого і починаються неймовірні пригоди...


Тривалість: 01:50:50
Якість: 720p
Відео:
розмір кадру: 1280 х 544
бітрейт: 3 657 кб/с
кодек:
частота кадрів: 24 кадр/сек

Аудіо #1:
мова: українська
переклад: багатоголосий закадровий
кодек: 5.1
бітрейт: 448 кб/с

Аудіо #2:
мова: німецька
переклад: оригінал
кодек: 5.1
бітрейт: 1510 кб/с

Субтитри #1:
мова: англійська
тип: програмні (м'які)
формат: *.srt

Субтитри #2:
мова: німецька
тип: програмні (м'які)
формат: *.srt
MediaInfo

General
Unique ID : 117914455232287967336066976339599349273 (0x58B57F7E4A7C851E3432B1CD62CCD619)
Complete name : /media/media/0_my_releases/Tom Sawyer (2011) [ukr,ger] sub[eng,ger] 720p.mkv
Format : Matroska
Format version : Version 2
File size : 4.44 GiB
Duration : 1h 50mn
Overall bit rate : 5 729 Kbps
Movie name : Том Сойєр / Tom Sawyer (2011) 720p
Encoded date : UTC 2012-05-26 13:05:45
Writing application : mkvmerge v5.1.0 ('And so it goes') built on Feb 1 2012 11:31:23
Writing library : libebml v1.2.2 + libmatroska v1.3.0

Video
ID : 1
Format : AVC
Format/Info : Advanced Video Codec
Format profile : [email protected]
Format settings, CABAC : Yes
Format settings, ReFrames : 5 frames
Codec ID : V_MPEG4/ISO/AVC
Duration : 1h 50mn
Bit rate : 3 657 Kbps
Width : 1 280 pixels
Height : 544 pixels
Display aspect ratio : 2.35:1
Frame rate : 24.000 fps
Color space : YUV
Chroma subsampling : 4:2:0
Bit depth : 8 bits
Scan type : Progressive
Bits/(Pixel*Frame) : 0.219
Stream size : 2.83 GiB (64%)
Title : Том Сойєр / Tom Sawyer (2011) 720p
Writing library : core 122 r2184 5c85e0a
Encoding settings : cabac=1 / ref=5 / deblock=1:0:0 / analyse=0x3:0x113 / me=umh / subme=7 / psy=1 / psy_rd=1.00:0.00 / mixed_ref=1 / me_range=16 / chroma_me=1 / trellis=1 / 8x8dct=1 / cqm=0 / deadzone=21,11 / fast_pskip=0 / chroma_qp_offset=-2 / threads=6 / sliced_threads=0 / nr=0 / decimate=1 / interlaced=0 / bluray_compat=0 / constrained_intra=0 / bframes=3 / b_pyramid=2 / b_adapt=1 / b_bias=0 / direct=1 / weightb=1 / open_gop=0 / weightp=2 / keyint=250 / keyint_min=24 / scenecut=40 / intra_refresh=0 / rc_lookahead=40 / rc=crf / mbtree=1 / crf=20.0 / qcomp=0.60 / qpmin=0 / qpmax=69 / qpstep=4 / ip_ratio=1.40 / aq=1:1.00
Language : German
Default : Yes
Forced : Yes

Audio #1
ID : 2
Format : AC-3
Format/Info : Audio Coding 3
Mode extension : CM (complete main)
Format settings, Endianness : Big
Codec ID : A_AC3
Duration : 1h 50mn
Bit rate mode : Constant
Bit rate : 448 Kbps
Channel(s) : 6 channels
Channel positions : Front: L C R, Side: L R, LFE
Sampling rate : 48.0 KHz
Bit depth : 16 bits
Compression mode : Lossy
Stream size : 355 MiB (8%)
Title : 5.1 @ 448 kbps
Language : Ukrainian
Default : Yes
Forced : Yes

Audio #2
ID : 3
Format :
Format/Info : Digital Theater Systems
Codec ID : A_DTS
Duration : 1h 50mn
Bit rate mode : Constant
Bit rate : 1 510 Kbps
Channel(s) : 6 channels
Channel positions : Front: L C R, Side: L R, LFE
Sampling rate : 48.0 KHz
Bit depth : 24 bits
Compression mode : Lossy
Stream size : 1.17 GiB (26%)
Title : 5.1 @ 1510 kbps
Language : German
Default : No
Forced : No

Text #1
ID : 4
Format : UTF-8
Codec ID : S_TEXT/UTF8
Codec ID/Info : UTF-8 Plain Text
Language : English
Default : No
Forced : No

Text #2
ID : 5
Format : UTF-8
Codec ID : S_TEXT/UTF8
Codec ID/Info : UTF-8 Plain Text
Language : German
Default : No
Forced : No
Світлини:






Джерело: &
Особиста оцінка: не дивився.

Українська звукова доріжка була взяла з релізу пана karvai0, за що йому подяка, та підігнана під 24fps.


 Трекер:    Зареєстрований   

Завантажити / скачати фільм українською



відео для новачків



 Зареєстрований:   2012-05-26 15:20
 Розмір:   4.44 GB 
 Оцінка фільму:   9.7/10 (Голосів: 15)
   
Інші релізи
   Том Сойєр / Tom Sawyer (2011) 2xUkr/Ger Arsenfpu  4 / 0   2.33 GB   2015-12-13 17:06 
   Том Сойєр / Tom Sawyer (2011) Ukr/Ger | Sub Eng/Ger karvai0  3 / 0   2.18 GB   2012-05-26 18:33 
karvai0 
Відео Гуртом - запис з ТБ
Відео Гуртом - запис з ТБ


З нами з: 18.01.10
Востаннє: 09.09.16
Повідомлень: 3686

2012-05-27 01:24  
xfsthe написано:

Субтитри #1:
мова: англійська
тип: програмні (м'які)
формат: *.srt

Субтитри #1:
мова: німецька
тип: програмні (м'які)
формат: *.srt

horror41k 
Новенький


З нами з: 11.05.10
Востаннє: 13.11.16
Повідомлень: 7

2012-05-27 18:44  
Дякую за Марка Твена))
8530 
VIP


З нами з: 27.01.09
Востаннє: 23.11.16
Повідомлень: 494

2012-06-18 21:40  
однозначно хороший фільм. а Гекельбері Фін. буде?
-VipeR- 
VIP


З нами з: 17.07.08
Востаннє: 05.12.16
Повідомлень: 275

2015-10-26 12:43  
Дайте скачати, будь-ласка)
alexcaptain 
Свій


З нами з: 20.03.14
Востаннє: 03.12.16
Повідомлень: 74

2016-04-03 12:30  
Тут хтось це роздає ?
Ваш часовий пояс: GMT + 2 Години

Нова тема   Відповісти