Завантажити та скачати торренти українською


Анонім / Anonymous (2011) 720p Ukr/Eng | Sub Eng

Нові коментарі

Нова тема   Відповісти
Автор Повідомлення
braveboy 
Відео Гуртом - команда HD
Відео Гуртом - команда HD


З нами з: 15.06.10
Востаннє: 29.10.16
Повідомлень: 958

2012-05-26 00:56  

Анонім / Anonymous (2011) 720p Ukr/Eng | Sub Eng


Анонім / Anonymous (2011) 720p Ukr/Eng | Sub Eng

«Was Shakespeare a Fraud?»


Жанр: драма, трилер
Країна: Німеччина, Великобританія




Кіностудія / кінокомпанія: Columbia Pictures, Relativity Media Centropolis Entertainment Studio Babelsberg
Режисер: Роланд Еммеріх
Актори: Ріс Іфанс, Ванесса Редгрейв, Себестіан Арместо, Рейф Сполл, Девід Т’юліс.

Сюжет:
Інтрига крутиться навколо припущення, що твори Вільяма Шекспіра писав далеко не легендарний митець. Бути чи не бути скандалу? - ось питання...



Тривалість: 02:09:57
Якість: 720p
Відео:
кодек:
розмір кадру: 1280 x 544
бітрейт: 6591 кб/с

Аудіо # 1:
мова: українська
переклад: професійний дубльований
кодек: 5.1
бітрейт: 640 кб/с

Аудіо # 2:
мова: англійська
переклад: оригінал
кодек: 5.1
бітрейт: 1510 кб/с

Джерело озвучення:


Субтитри:
мова: українська (Forced)
тип: програмні (м'які)
формат: *.srt

Субтитри:
мова: англійська (Full, SDH)
тип: програмні (м'які)
формат: *.srt
log

[info]: frame I:1879 Avg QP:11.41 size:125140
[info]: frame P:41129 Avg QP:11.85 size: 62512
[info]: frame B:143952 Avg QP:12.81 size: 24808
[info]: consecutive B-frames: 1.7% 2.1% 7.2% 33.4% 16.5% 26.2% 13.0%
[info]: mb I I16..4: 8.1% 70.2% 21.7%
[info]: mb P I16..4: 1.5% 13.4% 2.1% P16..4: 27.6% 22.8% 24.6% 3.4% 2.0% skip: 2.5%
[info]: mb B I16..4: 0.1% 1.8% 0.3% B16..8: 29.0% 20.1% 9.3% direct: 8.9% skip:30.6% L0:42.7% L1:38.1% BI:19.2%
[info]: 8x8 transform intra:78.0% inter:45.9%
[info]: coded y,uvDC,uvAC intra: 94.6% 88.7% 84.2% inter: 46.1% 36.0% 21.8%
[info]: i16 v,h,dc,p: 36% 6% 14% 44%
[info]: i8 v,h,dc,ddl,ddr,vr,hd,vl,hu: 13% 9% 11% 9% 11% 12% 11% 11% 13%
[info]: i4 v,h,dc,ddl,ddr,vr,hd,vl,hu: 11% 7% 4% 10% 15% 15% 13% 13% 13%
[info]: i8c dc,h,v,p: 57% 17% 16% 11%
[info]: Weighted P-Frames: Y:9.4% UV:6.1%
[info]: ref P L0: 48.0% 7.9% 17.7% 8.4% 6.1% 4.8% 4.1% 2.6% 0.4% 0.0%
[info]: ref B L0: 71.7% 13.8% 6.4% 3.5% 2.6% 1.4% 0.6%
[info]: ref B L1: 91.6% 8.4%
[info]: kb/s:6542.71
MediaInfo
General
Unique ID : 237751603844346156642712734862062515839 (0xB2DD4B16D28705F488E4B4955C8DF67F)
Complete name : E:\Temp\Anonymous (2011) [Ukr,Eng Sub Eng] 720p [HURTOM] by braveboy.mkv
Format : Matroska
Format version : Version 2
File size : 7.89 GiB
Duration : 2h 9mn
Overall bit rate : 8 694 Kbps
Movie name : Anonymous (2011) 720p by braveboy
Encoded date : UTC 2012-05-25 21:55:28
Writing application : mkvmerge v5.5.0 ('Healer') built on Apr 6 2012 21:43:24
Writing library : libebml v1.2.3 + libmatroska v1.3.0

Video
ID : 1
Format : AVC
Format/Info : Advanced Video Codec
Format profile : [email protected]
Format settings, CABAC : Yes
Format settings, ReFrames : 8 frames
Codec ID : V_MPEG4/ISO/AVC
Duration : 2h 9mn
Bit rate : 6 591 Kbps
Width : 1 280 pixels
Height : 544 pixels
Display aspect ratio : 2.35:1
Frame rate : 23.976 fps
Color space : YUV
Chroma subsampling : 4:2:0
Bit depth : 8 bits
Scan type : Progressive
Bits/(Pixel*Frame) : 0.395
Stream size : 5.78 GiB (73%)
Title : Anonymous (2011) 720p by braveboy
Writing library : core 124 r2197 69a0443
Encoding settings : cabac=1 / ref=8 / deblock=1:-3:-3 / analyse=0x3:0x133 / me=umh / subme=9 / psy=1 / psy_rd=0.80:0.00 / mixed_ref=1 / me_range=24 / chroma_me=1 / trellis=1 / 8x8dct=1 / cqm=0 / deadzone=21,11 / fast_pskip=0 / chroma_qp_offset=-2 / threads=3 / sliced_threads=0 / nr=0 / decimate=0 / interlaced=0 / bluray_compat=0 / constrained_intra=0 / bframes=6 / b_pyramid=2 / b_adapt=2 / b_bias=0 / direct=1 / weightb=1 / open_gop=0 / weightp=2 / keyint=240 / keyint_min=23 / scenecut=40 / intra_refresh=0 / rc=2pass / mbtree=0 / bitrate=6591 / ratetol=1.0 / qcomp=0.60 / qpmin=10 / qpmax=51 / qpstep=4 / cplxblur=20.0 / qblur=0.5 / ip_ratio=1.40 / pb_ratio=1.30 / aq=1:1.00
Default : Yes
Forced : No

Audio #1
ID : 2
Format : AC-3
Format/Info : Audio Coding 3
Mode extension : CM (complete main)
Format settings, Endianness : Big
Codec ID : A_AC3
Duration : 2h 9mn
Bit rate mode : Constant
Bit rate : 640 Kbps
Channel(s) : 6 channels
Channel positions : Front: L C R, Side: L R, LFE
Sampling rate : 48.0 KHz
Bit depth : 16 bits
Compression mode : Lossy
Stream size : 595 MiB (7%)
Title : 5.1 - 640 kbps [Blu-ray CEE]
Language : Ukrainian
Default : Yes
Forced : No

Audio #2
ID : 3
Format :
Format/Info : Digital Theater Systems
Codec ID : A_DTS
Duration : 2h 9mn
Bit rate mode : Constant
Bit rate : 1 510 Kbps
Channel(s) : 6 channels
Channel positions : Front: L C R, Side: L R, LFE
Sampling rate : 48.0 KHz
Bit depth : 24 bits
Compression mode : Lossy
Stream size : 1.37 GiB (17%)
Title : 5.1 - 1510 kbps
Language : English
Default : No
Forced : No

Text #1
ID : 4
Format : UTF-8
Codec ID : S_TEXT/UTF8
Codec ID/Info : UTF-8 Plain Text
Title : Forced
Language : Ukrainian
Default : Yes
Forced : No

Text #2
ID : 5
Format : UTF-8
Codec ID : S_TEXT/UTF8
Codec ID/Info : UTF-8 Plain Text
Title : Full
Language : English
Default : No
Forced : No

Text #3
ID : 6
Format : UTF-8
Codec ID : S_TEXT/UTF8
Codec ID/Info : UTF-8 Plain Text
Title : SDH
Language : English
Default : No
Forced : No

Menu
00:00:00.000 : en:00:00:00.000
00:10:02.977 : en:00:10:02.977
00:17:42.728 : en:00:17:42.728
00:27:33.694 : en:00:27:33.694
00:37:43.720 : en:00:37:43.720
00:43:53.631 : en:00:43:53.631
00:50:02.208 : en:00:50:02.208
00:58:16.785 : en:00:58:16.785
01:04:57.435 : en:01:04:57.435
01:11:15.313 : en:01:11:15.313
01:19:48.200 : en:01:19:48.200
01:30:14.576 : en:01:30:14.576
01:36:08.096 : en:01:36:08.096
01:43:21.862 : en:01:43:21.862
01:51:52.915 : en:01:51:52.915
01:57:54.818 : en:01:57:54.818
Порівняльні скріншоти
Source vs Encode




Скріншоти




720p by braveboy
Цитата:

* Source: Anonymous (2011) Blu-ray 1080p AVC [USA]

* Збережено оригінальні чаптери як на Blu-Ray



 Трекер:    Зареєстрований   

Завантажити / скачати фільм українською



відео для новачків



 Зареєстрований:   2012-05-26 00:59
 Розмір:   7.89 GB 
 Оцінка фільму:   9.7/10 (Голосів: 11)
   
Інші релізи
   Анонім / Anonymous (2011) Ukr/Eng | Sub Eng BASTERD-94  4 / 1   2.59 GB   2013-03-25 18:00 
   Анонім / Anonymous (2011) | Ліцензія Anonymous  1 / 0   1.47 GB   2011-12-14 11:59 
ratbol 
Модератор HD


З нами з: 03.02.09
Востаннє: 10.12.16
Повідомлень: 1088

2012-05-26 20:53  
Не можу зрозуміти чому скрін з сорсу не в оригінальній роздільній здатності? І чому енкод різкіший? Так не буває.
braveboy 
Відео Гуртом - команда HD
Відео Гуртом - команда HD


З нами з: 15.06.10
Востаннє: 29.10.16
Повідомлень: 958

2012-05-26 21:17  
ratbol написано:
Не можу зрозуміти чому скрін з сорсу не в оригінальній роздільній здатності? І чому енкод різкіший? Так не буває.

буває

ratbol 
Модератор HD


З нами з: 03.02.09
Востаннє: 10.12.16
Повідомлень: 1088

2012-05-26 21:37  
ratbol написано:
Не можу зрозуміти чому скрін з сорсу не в оригінальній роздільній здатності?

Givi 
Модератор відео


З нами з: 25.02.08
Востаннє: 08.12.16
Повідомлень: 2862

2012-05-26 22:10  
braveboy написано:
| Sub Eng

braveboy написано:

Субтитри:
мова: українська (Forced)
тип: програмні (м'які)
формат: *.srt

Субтитри:
мова: англійська (Full, SDH)
тип: програмні (м'які)
формат: *.srt

???
Хіба укр саби зазначати не треба?

braveboy 
Відео Гуртом - команда HD
Відео Гуртом - команда HD


З нами з: 15.06.10
Востаннє: 29.10.16
Повідомлень: 958

2012-05-26 23:02  
Givi написано:

???
Хіба укр саби зазначати не треба?


не треба

Додано через 3 хвилини 29 секунд:

ratbol написано:
Не можу зрозуміти чому скрін з сорсу не в оригінальній роздільній здатності?

при порівнянні скріншоти повинні мати однаковий розмір кадру я про це вже неодноразово писав

ratbol 
Модератор HD


З нами з: 03.02.09
Востаннє: 10.12.16
Повідомлень: 1088

2012-05-26 23:32  
braveboy
Молодець, а я ні разу не бачив.
Як відео може кодуватись не без втрат якості? В тебе, як видно, навпаки, приріст деталізації.

braveboy 
Відео Гуртом - команда HD
Відео Гуртом - команда HD


З нами з: 15.06.10
Востаннє: 29.10.16
Повідомлень: 958

2012-05-27 00:01  
ratbol написано:

braveboy
Молодець, а я ні разу не бачив.
Як відео може кодуватись не без втрат якості? В тебе, як видно, навпаки, приріст деталізації.


фільтри

VitNi 
Частий відвідувач


З нами з: 05.05.12
Востаннє: 10.12.16
Повідомлень: 39

2012-05-27 06:31  
А швидкість віддачі ти навіщо зарізав?
Навмисно?!!

Givi 
Модератор відео


З нами з: 25.02.08
Востаннє: 08.12.16
Повідомлень: 2862

2012-05-27 06:59  
braveboy написано:
не треба

Лаконічно... Wink (1)

Lev7 
Свій


З нами з: 13.11.08
Востаннє: 09.12.16
Повідомлень: 78

2012-09-08 23:06  
Один з найкращих фільмів, які я бачив!
Тут присутньо все: шедевральний сюжет, прекрасна гра акторів, продуманість деталей, тримання інтриги та витриманість стилю. Показано жадобу влади, силу слів, чорне і біле, добро та зло...
Для тих, хто любить мистецтво, а не черговий шедевр голівуду.

П.С. Досі під враженнями від фільму.

taras1994 
Почесний оцифрувальник літератури


З нами з: 23.03.12
Востаннє: 30.11.16
Повідомлень: 5096

2012-09-09 08:23  
Lev7 написано:

Один з найкращих фільмів, які я бачив!
Тут присутньо все: шедевральний сюжет, прекрасна гра акторів, продуманість деталей, тримання інтриги та витриманість стилю. Показано жадобу влади, силу слів, чорне і біле, добро та зло...
Для тих, хто любить мистецтво, а не черговий шедевр голівуду.

П.С. Досі під враженнями від фільму.

я дивився початок, і мені теж дуже сподобалося

Максвелл 
Частий відвідувач


З нами з: 29.08.12
Востаннє: 22.10.16
Повідомлень: 26

2012-12-03 22:38  
Lev7
Абсолютно згідний. Фільм геніальний. Це краще ніж шедевр.

Ваш часовий пояс: GMT + 2 Години

Нова тема   Відповісти