Завантажити та скачати торренти українською


Війна / War (2007) 720p 2хUkr/Eng | Sub Multilanguage

Нові коментарі

Нова тема   Відповісти
Автор Повідомлення
Sando7 
Відео Гуртом - запис з ТБ
Відео Гуртом - запис з ТБ


З нами з: 04.05.09
Востаннє: 07.12.16
Повідомлень: 840

2012-05-26 00:21  
Війна / War (2007) 720p 2хUkr/Eng | Sub Multilanguage

Війна / War (2007) 720p 2хUkr/Eng | Sub Multilanguage


Жанр: бойовик, кримінальний, трилер
Країна: США



Кіностудія / кінокомпанія: Lionsgate
Режисер: Філліп Дж. Етвелл
Актори: Джет Лі, Джейсон Стетхем, Джон Лоун, Девон Аокі, Луіс Гузман, Сол Рубінек, Ре Ісібасі, Санг Кенг, Мэтью Ст. Патрик, Надін Веласкес

Сюжет:
У світі, яким править страх, тільки правосуддя врятовує життя. На рахунку агента ФБР Джека Кроуфорда і його напарника немало знешкоджених бандитів. Але справедливість і закон опинилися безсилі, коли одержимий вбивця оголосив їм війну. З цієї миті життя Кроуфорда перетворюється на нескінченну гру із смертю, захоплюючу і жорстоку. Гру, де життя не коштує нічого, а колишні друзі стають заклятими ворогами.


Тривалість: 01:42:59
Якість:
Відео:
кодек:
розмір кадру: 1280 х 534
бітрейт: ~7575 кб/с

Аудіо # 1: Так Треба Продакшн на замовлення
мова: українська
переклад: багатоголосий закадровий
кодек: 2.0
бітрейт: 192 кб/с

Аудіо # 2: студія "Мова" на замовлення
мова: українська
переклад: багатоголосий закадровий
кодек: 2.0
бітрейт: 192 кб/с

Аудіо # 3:
мова: англійська
переклад: оригінал
кодек: 5.1
бітрейт: 448 кб/с

Джерело озвучення:
Субтитри

Субтитри:
мова: англійська
тип: програмні (м'які)
формат: *.srt

Субтитри:
мова: фінська
тип: програмні (м'які)
формат: *.srt

Субтитри:
мова: грецька
тип: програмні (м'які)
формат: *.srt

Субтитри:
мова: іспанська
тип: програмні (м'які)
формат: *.srt

Субтитри:
мова: шведська
тип: програмні (м'які)
формат: *.srt
MediaInfo

General
Unique ID : 226855830981904190698722106244458149979 (0xAAAAD802EDC59F43AE4A7706606CF85B)
Complete name : E:\War (2007) [Ukr] [Hurtom].mkv
Format : Matroska
Format version : Version 2
File size : 6.05 GiB
Duration : 1h 43mn
Overall bit rate : 8 409 Kbps
Movie name : hd
Encoded date : UTC 2012-05-27 20:32:37
Writing application : mkvmerge v5.5.0 ('Healer') built on Apr 6 2012 21:43:24
Writing library : libebml v1.2.3 + libmatroska v1.3.0

Video
ID : 1
Format : AVC
Format/Info : Advanced Video Codec
Format profile : [email protected]
Format settings, CABAC : Yes
Format settings, ReFrames : 11 frames
Codec ID : V_MPEG4/ISO/AVC
Duration : 1h 43mn
Bit rate : 7 575 Kbps
Width : 1 280 pixels
Height : 532 pixels
Display aspect ratio : 2.40:1
Frame rate : 23.976 fps
Color space : YUV
Chroma subsampling : 4:2:0
Bit depth : 8 bits
Scan type : Progressive
Bits/(Pixel*Frame) : 0.464
Stream size : 5.33 GiB (88%)
Title : War.2007.Blu-ray.720p.
Writing library : core 56 svn-680
Encoding settings : cabac=1 / ref=8 / deblock=1:-3:-3 / analyse=0x3:0x133 / me=umh / subme=7 / brdo=1 / mixed_ref=1 / me_range=21 / chroma_me=1 / trellis=1 / 8x8dct=1 / cqm=2 / deadzone=21,11 / chroma_qp_offset=0 / threads=6 / nr=0 / decimate=1 / mbaff=0 / bframes=16 / b_pyramid=1 / b_adapt=1 / b_bias=0 / direct=3 / wpredb=1 / bime=1 / keyint=250 / keyint_min=25 / scenecut=40(pre) / rc=2pass / bitrate=7575 / ratetol=1.0 / rceq='blurCplx^(1-qComp)' / qcomp=0.60 / qpmin=10 / qpmax=51 / qpstep=4 / cplxblur=20.0 / qblur=0.5 / ip_ratio=1.40 / pb_ratio=1.30 / aq=1:0.3:15.0
Language : English
Default : Yes
Forced : No

Audio #1
ID : 2
Format : AC-3
Format/Info : Audio Coding 3
Mode extension : CM (complete main)
Codec ID : A_AC3
Duration : 1h 43mn
Bit rate mode : Constant
Bit rate : 192 Kbps
Channel(s) : 2 channels
Channel positions : Front: L R
Sampling rate : 48.0 KHz
Bit depth : 16 bits
Compression mode : Lossy
Delay relative to video : 1s 738ms
Stream size : 141 MiB (2%)
Language : Ukrainian
Default : Yes
Forced : Yes

Audio #2
ID : 3
Format : AC-3
Format/Info : Audio Coding 3
Mode extension : CM (complete main)
Muxing mode : Header stripping
Codec ID : A_AC3
Duration : 1h 43mn
Bit rate mode : Constant
Bit rate : 192 Kbps
Channel(s) : 2 channels
Channel positions : Front: L R
Sampling rate : 48.0 KHz
Bit depth : 16 bits
Compression mode : Lossy
Stream size : 141 MiB (2%)
Language : Ukrainian
Default : No
Forced : No

Audio #3
ID : 4
Format : AC-3
Format/Info : Audio Coding 3
Mode extension : CM (complete main)
Muxing mode : Header stripping
Codec ID : A_AC3
Duration : 1h 43mn
Bit rate mode : Constant
Bit rate : 448 Kbps
Channel(s) : 6 channels
Channel positions : Front: L C R, Side: L R, LFE
Sampling rate : 48.0 KHz
Bit depth : 16 bits
Compression mode : Lossy
Delay relative to video : 1s 738ms
Stream size : 330 MiB (5%)
Language : English
Default : No
Forced : No

Text #1
ID : 5
Format : UTF-8
Codec ID : S_TEXT/UTF8
Codec ID/Info : UTF-8 Plain Text
Language : English
Default : Yes
Forced : No

Text #2
ID : 6
Format : UTF-8
Codec ID : S_TEXT/UTF8
Codec ID/Info : UTF-8 Plain Text
Language : Finnish
Default : No
Forced : No

Text #3
ID : 7
Format : UTF-8
Codec ID : S_TEXT/UTF8
Codec ID/Info : UTF-8 Plain Text
Language : Greek
Default : No
Forced : No

Text #4
ID : 8
Format : UTF-8
Codec ID : S_TEXT/UTF8
Codec ID/Info : UTF-8 Plain Text
Language : Spanish
Default : No
Forced : No

Text #5
ID : 9
Format : UTF-8
Codec ID : S_TEXT/UTF8
Codec ID/Info : UTF-8 Plain Text
Language : Swedish
Default : No
Forced : No


Джерело:


 Трекер:    Зареєстрований   

Завантажити / скачати фільм українською



відео для новачків



 Зареєстрований:   2012-05-27 22:53
 Розмір:   6.05 GB 
 Оцінка фільму:   8.2/10 (Голосів: 10)
   
Інші релізи
braveboy 
Відео Гуртом - команда HD
Відео Гуртом - команда HD


З нами з: 15.06.10
Востаннє: 29.10.16
Повідомлень: 958

2012-05-27 17:25  
sando7 написано:
Muxing mode : Header stripping

відключи компресію заголовків http://toloka.to/t31095

sando7 написано:
Війна / War (2007) 720p 2хUkr/Eng | Sub Eng

в назві вкажи всі субтитри або просто напиши Multilanguage

Sando7 
Відео Гуртом - запис з ТБ
Відео Гуртом - запис з ТБ


З нами з: 04.05.09
Востаннє: 07.12.16
Повідомлень: 840

2012-05-27 22:57  
braveboy написано:

Muxing mode : Header stripping

відключи компресію заголовків http://toloka.to/t31095

sando7 написано:
Війна / War (2007) 720p 2хUkr/Eng | Sub Eng

в назві вкажи всі субтитри або просто напиши Multilanguage 

Не знав про ці нюанси

переробив для нормального перегляду на плеєрах та замінено доріжку №2
......................................................................................
завантажте новий торрент файл та вибачте за незручності

М_а_м_а_Й 
VIP


З нами з: 12.08.11
Востаннє: 07.12.16
Повідомлень: 375

2012-05-27 23:32  
Цитата:
розюирань
мається на увазі "розбирань"?
Givi 
Модератор відео


З нами з: 25.02.08
Востаннє: 07.12.16
Повідомлень: 2862

2012-05-28 06:48  
Ріп власний, чи звідкись узятий?
braveboy 
Відео Гуртом - команда HD
Відео Гуртом - команда HD


З нами з: 15.06.10
Востаннє: 29.10.16
Повідомлень: 958

2012-05-28 06:56  
Givi написано:
Ріп власний, чи звідкись узятий?

якщо не помиляюсь ріп взятий з hdclub

Givi 
Модератор відео


З нами з: 25.02.08
Востаннє: 07.12.16
Повідомлень: 2862

2012-05-28 07:03  
braveboy написано:
якщо не помиляюсь ріп взятий з hdclub

Було б не погано це зазначити Wink (1)

Додано через 33 секунди:

Звісно, це я кажу релізерові.

Virake 
Localize Team
Localize Team


З нами з: 07.07.09
Востаннє: 08.12.16
Повідомлень: 4064

2012-05-28 09:41  
sando7 написано:
герой опиняється в самій гущавині кривавих розбирань

визначтеся вже, чи це розборки, чи сутички. бо "розбирання" - так можна сказати, коли ви розбираєте на частини леґо або автомобіль. але аж ніяк не зіткнення азіатських банд.

Sando7 
Відео Гуртом - запис з ТБ
Відео Гуртом - запис з ТБ


З нами з: 04.05.09
Востаннє: 07.12.16
Повідомлень: 840

2012-05-28 14:12  
Virake написано:

sando7 написано:
герой опиняється в самій гущавині кривавих розбирань

визначтеся вже, чи це розборки, чи сутички. бо "розбирання" - так можна сказати, коли ви розбираєте на частини леґо або автомобіль. але аж ніяк не зіткнення азіатських банд.

так опис в мене не дуже, замінив на інший

braveboy написано:

Givi написано:
Ріп власний, чи звідкись узятий?

якщо не помиляюсь ріп взятий з hdclub

ріп брав не з їхнього трекеру, але схоже що це їхній ріп...додав кнопочку hdclub

Vitala9 
Поважний учасник


З нами з: 03.01.10
Востаннє: 07.12.16
Повідомлень: 209

2012-07-10 19:03  
Чекаємо на 2 частину.
JACKUS 
Відео Гуртом - фільмокрай
Відео Гуртом - фільмокрай


З нами з: 08.10.09
Востаннє: 05.12.16
Повідомлень: 1943

2012-08-20 22:29  
Цитата:
Чекаємо на 2 частину.

Тобто??? Буде 2 частина???

waldi-hurtom 
VIP


З нами з: 07.10.12
Востаннє: 07.12.16
Повідомлень: 611

2015-12-20 22:16  
Чекав роздачі три тижні. Піду брати інший реліз не в HD Sad (1)
Ваш часовий пояс: GMT + 2 Години

Нова тема   Відповісти