Завантажити та скачати торренти українською


VA - Пісенна традиція Житомирщини (2008) [FLAC] | Folk

Нові коментарі

Нова тема   Відповісти
Автор Повідомлення
gosha.samovar 
VIP


З нами з: 08.09.10
Востаннє: 06.12.16
Повідомлень: 400

2012-05-25 22:50  
VA - Пісенна традиція Житомирщини (2008) [FLAC] | Folk

VA - Пісенна традиція Житомирщини (2008) [FLAC] | Folk


Стиль: Folk
Країна, місто: Україна, Житомирщина
Видавець: НАН України, УКРМЮЗІК
Виконавці: Фольклорні колективи Житомирщини
Пісні:
    01. Ой, летіла галка - Лугинський р-н, с. Калинівка, фольк. гурт
    02. Ой, у садочку - Лугинський р-н, с. Калинівка, фольк. гурт
    03. Петрівка - Лугинський р-н, с. Липники, гурт доярок
    04. Ой, мати, мати - Лугинський р-н, с. Липники, гурт доярок
    05. Ой, посію я рожу - Лугинський р-н, с. Камінь, жіночий гурт
    06. Копай, мати, город - Малинський р-н, с. Мала Діброва, жіночий гурт
    07. Біда за бідою - Малинський р-н, с. Мала Діброва, жіночий гурт
    08. Чом ти, рожечко - Овруцький р-н, с. Острів, жіночий гурт
    09. Сонце світить, але не гріє - Овруцький р-н, с. Острів, вик. Лідія Лєдяєва
    10. Ой за двором - Овруцький р-н, с. Острів, вик. Лідія Лєдяєва
    11. Ой, у саду соловейко - Лугинський р-н, с.м.т. Лугини, Роза Жук, Марія Дородько, Людмила Чижун
    12. Ой за двором - Овруцький р-н, с. Клинець, фольк. гурт
    13. Весільні дражнили - Новоград-Волинський р-н, с. Кинова, фольк. гурт
    14. Чом ти, мамо - Малинський р-н, с. Мала Діброва, фольк. гурт
    15. Весільна - Ружинський р-н, с. Ягнятин, дівочий гурт
    16. Ішли воли із діброви - Овруцький р-н, с. Клинець, фольк. гурт
    17. Веснянка - Народицький р-н, с. Лозниця, фольк. гурт
    18. Покотився горіх - Лугинський р-н, с.м.т. Лугини, жіноче тріо
    19. Соловейко да на долині - Лугинський р-н, с. Малахівка, вик. Надія Невмержицька
    20. Весільна - Народицький р-н, с. Лозниця, фольк. гурт
    21. Весільна - Народицький р-н, с. Лозниця, фольк. гурт
    22. Ой, з-за гори буйний вітер віє - Народицький р-н, с. Лозниця, фольк. гурт
    23. Та червоная та калинонька - Лугинський р-н, с.м.т. Лугини, фольк. гурт
    24. Розстилайся, барвіночку - Лугинський р-н, с.м.т. Лугини, тріо
    25. Сіно моє, сіно - Народицький р-н, с. Ласни, жіночий гурт
    26. Зайди, місяченьку - Коростеньський р-н, с. Полянка, вик. мати і дочка Воляновичі
EAC log
Exact Audio Copy V1.0 beta 3 from 29. August 2011

Отчёт EAC об извлечении, выполненном 24. мая 2012, 21:18

Різні виконавці / Пісенна традиція Житомирщини

Дисковод: HL-DT-STDVD-RAM GSA-H58N Adapter: 0 ID: 0

Режим чтения : Достоверность
Использование точного потока : Да
Отключение кэша аудио : Да
Использование указателей C2 : Нет

Коррекция смещения при чтении : 102
Способность читать области Lead-in и Lead-out : Нет
Заполнение пропущенных сэмплов тишиной : Да
Удаление блоков с тишиной в начале и конце : Нет
При вычислениях CRC использовались нулевые сэмплы : Да
Интерфейс : Встроенный Win32-интерфейс для Win NT/2000

Выходной формат : Пользовательский кодировщик
Выбранный битрейт : 1024 kBit/s
Качество : Высокий
Добавление ID3-тега : Нет
Утилита сжатия : D:\soft_2\EAC\Exact Audio Copy\Flac\flac.exe
Дополнительные параметры : -V -8 -T "Date=%year%" -T "Genre=%genre%" %source%

TOC извлечённого CD

Трек | Старт | Длительность | Начальный сектор | Конечный сектор
---------------------------------------------------------------------
1 | 0:00.00 | 2:39.17 | 0 | 11941
2 | 2:39.17 | 2:53.02 | 11942 | 24918
3 | 5:32.19 | 2:25.08 | 24919 | 35801
4 | 7:57.27 | 1:53.72 | 35802 | 44348
5 | 9:51.24 | 3:07.09 | 44349 | 58382
6 | 12:58.33 | 2:28.19 | 58383 | 69501
7 | 15:26.52 | 3:11.41 | 69502 | 83867
8 | 18:38.18 | 2:27.65 | 83868 | 94957
9 | 21:06.08 | 2:56.59 | 94958 | 108216
10 | 24:02.67 | 1:14.54 | 108217 | 113820
11 | 25:17.46 | 3:31.03 | 113821 | 129648
12 | 28:48.49 | 2:14.03 | 129649 | 139701
13 | 31:02.52 | 2:12.59 | 139702 | 149660
14 | 33:15.36 | 3:29.55 | 149661 | 165390
15 | 36:45.16 | 1:22.06 | 165391 | 171546
16 | 38:07.22 | 2:04.02 | 171547 | 180848
17 | 40:11.24 | 1:19.13 | 180849 | 186786
18 | 41:30.37 | 2:59.33 | 186787 | 200244
19 | 44:29.70 | 1:56.05 | 200245 | 208949
20 | 46:26.00 | 1:54.69 | 208950 | 217568
21 | 48:20.69 | 1:34.29 | 217569 | 224647
22 | 49:55.23 | 2:51.40 | 224648 | 237512
23 | 52:46.63 | 2:37.01 | 237513 | 249288
24 | 55:23.64 | 2:28.39 | 249289 | 260427
25 | 57:52.28 | 2:01.47 | 260428 | 269549
26 | 59:54.00 | 1:59.00 | 269550 | 278474

Характеристики диапазона извлечения и сообщения об ошибках

Выбранный диапазон

Имя файла E:\Музіка!\from EAC\Пісенна традиція Житомирщини\Різні виконавці - Пісенна традиція Житомирщини.wav

Пиковый уровень 95.0 %
Скорость извлечения 2.7 X
Качество диапазона 99.9 %
CRC теста E47477FC
CRC копии E47477FC
Копирование... OK

Ошибок не произошло

Конец отчёта

==== Контрольная сумма отчёта A9D494B0AED3C5A9EB904751D0F7CEE717A0DC56FED64A013725A38C43C9C4FC ====
Спектр
Тривалість: 01:01:53
Мова: українська
Аудіо-кодек: FLAC
Бітрейт: 685 кб/с
Джерело: власний ріп власного CD
Додаткова інформація


Нажаль, у розділі "Музика" відсутнє таке поле, як ОСОБИСТА ОЦІНКА. Мені дуже сподобалось, як співають люди на Житомирщині. Раджу обов'язково скачати і послухати. До того ж, диск досить таки рідкісний (принаймні я не знайшов його в Інтеренеті навіть у МР3, та й у магазинах його не бачив).
Якщо Ви справді бажаєте підтримати українське - після прослуховування, якщо музика вам сподобалась, придбайте ліцензійний диск. Підтримаймо вітчизняних виконавців!


Срібний реліз (на рейтинг впливає 50% завантаженого)
 Трекер:    Зареєстрований   

Завантажити / скачати українську музику



відео для новачків



 Зареєстрований:   2012-05-25 22:50
 Розмір:   347 MB 
 Оцінка музики:   10/10 (Голосів: 4)
   
A.R. 
Частий відвідувач


З нами з: 26.01.09
Востаннє: 03.12.16
Повідомлень: 35

2012-06-02 22:29  
Цікаво, чи можна десь дістати диск =)
gosha.samovar 
VIP


З нами з: 08.09.10
Востаннє: 06.12.16
Повідомлень: 400

2012-06-02 23:21  
Нє.
Ваш часовий пояс: GMT + 2 Години

Нова тема   Відповісти