Завантажити та скачати торренти українською


Код доступу «Кейптаун» / Safe House (2012) 720p | Line

Нові коментарі

Нова тема   Відповісти
Автор Повідомлення
narmed 
Новенький


З нами з: 07.08.11
Востаннє: 30.07.15
Повідомлень: 9

2012-05-25 20:43  
Код доступу «Кейптаун» / Safe House (2012) 720p| Line

Код доступу «Кейптаун» / Safe House (2012) 720p | Line


Жанр: екшн, кримінальний, містика
Країна: США, ПАР



Кіностудія / кінокомпанія: Intrepid Pictures, Moonlighting Films, Relativity Media, Stuber Productions; мейджор – Universal Pictures International
Режисер: Деніель Еспіноза
Актори: Дензел Вашингтон, Раян Рейнолдс, Вера Варміга, Брендан Глісон, Сем Шепард

Сюжет:
Випускник Гарварду Метт мріє зі своєю нареченою переїхати до Парижу. Але вона не знає, що вже рік він працює на ЦРУ.
Легендарний агент ЦРУ Фрост володіє секретною інформацією. Але він вийшов з-під контролю, і тепер його головне правило: «не довіряй нікому - тебе зрадить кожен».
Їхні шляхи перетнуться в одному з найкрасивіших міст світу - Кейптауні, де кожен має зробити свій вибір.


Тривалість: 01:54:54
Якість: 720p [HDChina]
Відео:
кодек:
розмір кадру: 1280x534
бітрейт: 9500 Kb/s

Аудіо:
мова: українська
переклад: професійний дубльований Line Skiff
кодек: 2.0
бітрейт: 384 кб/с
MediaInfo
D:\Flims\Kod.dostupa.Keyptaun.2012.Dt..720p.mkv
General
Unique ID : 204428044796764630856219595005131119050 (0x99CB68C788F58C9C91DAE270D36A59CA)
Complete name : D:\Flims\Kod.dostupa.Keyptaun.2012.Dt..720p.mkv
Format : Matroska
Format version : Version 2
File size : 7.93 GiB
Duration : 1h 54mn
Overall bit rate : 9 875 Kbps
Movie name : Kod.dostupa.Keyptaun.2012.Dt..720p.[uniongang.tv] by sstonecold
Encoded date : UTC 2012-05-25 11:01:44
Writing application : mkvmerge v3.2.0 ('Beginnings') built on Feb 12 2010 16:46:17
Writing library : libebml v0.7.9 + libmatroska v0.8.1
Video #1
ID : 1
Format : AVC
Format/Info : Advanced Video Codec
Format profile : [email protected]
Format settings, CABAC : Yes
Format settings, ReFrames : 12 frames
Codec ID : V_MPEG4/ISO/AVC
Duration : 1h 54mn
Bit rate : 9 500 Kbps
Width : 1 280 pixels
Height : 534 pixels
Display aspect ratio : 2.40:1
Frame rate : 23.976 fps
Color space : YUV
Chroma subsampling : 4:2:0
Bit depth : 8 bits
Scan type : Progressive
Bits/(Pixel*Frame) : 0.580
Stream size : 7.46 GiB (94%)
Title : Kod.dostupa.Keyptaun.2012.Dt..720p.[uniongang.tv] by sstonecold
Writing library : core 125 r2200 999b753
Encoding settings : cabac=1 / ref=12 / deblock=1:-3:-3 / analyse=0x3:0x113 / me=umh / subme=10 / psy=1 / psy_rd=1.10:0.00 / mixed_ref=1 / me_range=32 / chroma_me=1 / trellis=2 / 8x8dct=1 / cqm=0 / deadzone=21,11 / fast_pskip=0 / chroma_qp_offset=-2 / threads=18 / lookahead_threads=3 / sliced_threads=0 / nr=0 / decimate=0 / interlaced=0 / bluray_compat=0 / constrained_intra=0 / bframes=8 / b_pyramid=2 / b_adapt=2 / b_bias=0 / direct=3 / weightb=1 / open_gop=0 / weightp=2 / keyint=240 / keyint_min=24 / scenecut=40 / intra_refresh=0 / rc_lookahead=240 / rc=2pass / mbtree=1 / bitrate=9500 / ratetol=1.0 / qcomp=0.70 / qpmin=0 / qpmax=69 / qpstep=4 / cplxblur=20.0 / qblur=0.5 / ip_ratio=1.40 / aq=1:0.65
Language : English
Audio #2
ID : 2
Format : AC-3
Format/Info : Audio Coding 3
Mode extension : CM (complete main)
Codec ID : A_AC3
Duration : 1h 54mn
Bit rate mode : Constant
Bit rate : 384 Kbps
Channel(s) : 2 channels
Channel positions : Front: L R
Sampling rate : 48.0 KHz
Bit depth : 16 bits
Compression mode : Lossy
Stream size : 316 MiB (4%)
Title : ukr
Language : Ukrainian
Скріншоти



 Трекер:    Зареєстрований   

Завантажити / скачати фільм українською



відео для новачків



 Зареєстрований:   2012-05-25 20:43
 Розмір:   7.93 GB 
 Оцінка фільму:   9.1/10 (Голосів: 13)
   
Інші релізи
Malyatkoden 
Частий відвідувач


З нами з: 03.05.12
Востаннє: 08.12.16
Повідомлень: 25

2012-05-25 22:52  
А англійська доріжка де?додайте її будь-ласка!Happy
nissal 
Свій


З нами з: 14.04.11
Востаннє: 21.12.14
Повідомлень: 78

2012-05-26 00:16  
7.93 Gb?! Ні, ну, ні, ні.... (с) Happy Є десь "легший" варіант? Зараз понишпорю.
narmed 
Новенький


З нами з: 07.08.11
Востаннє: 30.07.15
Повідомлень: 9

2012-05-26 00:43  
с англійською доріжкою було б до 10гб
ponedilok 
Свій


З нами з: 04.11.08
Востаннє: 10.10.16
Повідомлень: 90

2012-05-26 08:16  
Malyatkoden написано:
А англійська доріжка де?додайте її будь-ласка!Happy

Згоден. Не діло викладати 720p без оригінальної доріжки та сабів. Хотів був уже качати, аж поки не розгледів цю проблему.

Gelios 
Відео Гуртом - дизайнер
Відео Гуртом - дизайнер


З нами з: 03.09.11
Востаннє: 08.12.16
Повідомлень: 1882

2012-05-26 08:24  
narmed написано:
Постер

Це мій постер Wink (2)

narmed 
Новенький


З нами з: 07.08.11
Востаннє: 30.07.15
Повідомлень: 9

2012-05-26 09:12  
Gelios написано:
Це мій постер

треба прибрати?

Gelios 
Відео Гуртом - дизайнер
Відео Гуртом - дизайнер


З нами з: 03.09.11
Востаннє: 08.12.16
Повідомлень: 1882

2012-05-26 09:43  
narmed написано:
треба прибрати?

Та ні. Wide grin
просто я зробив його. Wink (2)

narmed 
Новенький


З нами з: 07.08.11
Востаннє: 30.07.15
Повідомлень: 9

2012-05-26 09:56  
я вже подумав що забороняєш Wide grin
yavas.dm 
Новенький


З нами з: 26.08.11
Востаннє: 04.12.16
Повідомлень: 1

2012-05-26 11:46  
Скажіть, будь ласка, що з швидкістю? ніби 24 сідери..
Buksbunny 
Свій


З нами з: 26.05.09
Востаннє: 03.04.13
Повідомлень: 55

2012-05-27 09:49  
хороший фільм, не часто можна побачити Раяна Рейнолдса в ролі "серйозного хлопця з ЦРУ" Wide grin в основному ж тільки комедії.
Ваш часовий пояс: GMT + 2 Години

Нова тема   Відповісти