Завантажити та скачати торренти українською


Подорож до центру землі 2: Таємничий острів / Journey 2: The Mysterious Island (2012) 720p Ukr/Eng | Sub Ukr/Eng

Нові коментарі

Нова тема   Відповісти
Автор Повідомлення
xfsthe 
Оцифрування книг Гуртом
Оцифрування книг Гуртом


З нами з: 13.02.11
Востаннє: 11.12.16
Повідомлень: 279

2012-05-23 00:54  
Подорож до центру землі 2: Таємничий острів / Journey 2: The Mysterious Island (2012) 720p Ukr/Eng | Sub Ukr/Eng

Подорож до центру землі 2: Таємничий острів / Journey 2: The Mysterious Island (2012) 720p Ukr/Eng | Sub Ukr/Eng


Жанр: фантастика, фентезі, пригоди, сімейний, комедія, бойовик
Країна: США



Кіностудія / кінокомпанія: New Line Cinema, Contrafilm, Walden Media
Режисер: Бред Пейтон
Актори: Джош Хатчерсон, Двейн Джонсон, Ванесса Хадженс, Майкл Кейн, Крістін Девіс, Луіс Гузман

Сюжет:
Шон Андерсон, юний шукач пригод, разом із хлопцем своєї матері, який намагається налагодити контакт з юнаком, відправляються в небезпечну подорож на таємничий і населений чудовиськами острів. Їх місія - знайти зниклого дідуся Шона.


Тривалість: 01:34:11
Якість: 720p
Відео:
розмір кадру: 1280 х 720
бітрейт: 7 228 кб/с
кодек:

Аудіо #1:
мова: українська
переклад: професійний дубльований
кодек: 5.1
бітрейт: 640 кб/с

Аудіо #2:
мова: англійська
переклад: оригінал
кодек: 5.1
бітрейт: 1510 кб/с

Субтитри #1:
мова: українська
тип: програмні (м'які)
формат: *.srt

Субтитри #2:
мова: українська (форсовані)
тип: програмні (м'які)
формат: *.srt

Субтитри #3:
мова: англійська
тип: програмні (м'які)
формат: *.srt
MediaInfo

General
Unique ID : 13508639413096809030941601607295356099 (0xA29AB5840636408810E1FC2D81ECCC3)
Complete name : /media/soft/Journey 2. The Mysterious Island (2012) [ukr,eng] sub[ukr,eng] 720p.mkv
Format : Matroska
Format version : Version 2
File size : 6.17 GiB
Duration : 1h 34mn
Overall bit rate : 9 375 Kbps
Movie name : Подорож до центру землі 2: Таємничий острів / Journey 2: The Mysterious Island (2012) 720p
Encoded date : UTC 2012-05-23 13:47:27
Writing application : mkvmerge v5.1.0 ('And so it goes') built on Feb 1 2012 11:31:23
Writing library : libebml v1.2.2 + libmatroska v1.3.0

Video
ID : 1
Format : AVC
Format/Info : Advanced Video Codec
Format profile : [email protected]
Format settings, CABAC : Yes
Format settings, ReFrames : 9 frames
Codec ID : V_MPEG4/ISO/AVC
Duration : 1h 34mn
Bit rate : 7 228 Kbps
Width : 1 280 pixels
Height : 720 pixels
Display aspect ratio : 16:9
Frame rate : 23.976 fps
Color space : YUV
Chroma subsampling : 4:2:0
Bit depth : 8 bits
Scan type : Progressive
Bits/(Pixel*Frame) : 0.327
Stream size : 4.63 GiB (75%)
Title : Подорож до центру землі 2: Таємничий острів / Journey 2: The Mysterious Island (2012) 720p
Writing library : core 124 r2197 69a0443
Encoding settings : cabac=1 / ref=9 / deblock=1:-3:-3 / analyse=0x3:0x113 / me=tesa / subme=11 / psy=1 / psy_rd=1.05:0.01 / mixed_ref=1 / me_range=32 / chroma_me=1 / trellis=2 / 8x8dct=1 / cqm=0 / deadzone=21,11 / fast_pskip=0 / chroma_qp_offset=-3 / threads=12 / sliced_threads=0 / nr=0 / decimate=1 / interlaced=0 / bluray_compat=0 / constrained_intra=0 / bframes=6 / b_pyramid=2 / b_adapt=2 / b_bias=0 / direct=3 / weightb=1 / open_gop=0 / weightp=2 / keyint=240 / keyint_min=23 / scenecut=40 / intra_refresh=0 / rc_lookahead=80 / rc=2pass / mbtree=1 / bitrate=7228 / ratetol=1.0 / qcomp=0.70 / qpmin=0 / qpmax=69 / qpstep=4 / cplxblur=20.0 / qblur=0.5 / vbv_maxrate=40000 / vbv_bufsize=40000 / nal_hrd=none / ip_ratio=1.40 / aq=1:0.90
Language : English
Default : Yes
Forced : Yes

Audio #1
ID : 2
Format : AC-3
Format/Info : Audio Coding 3
Mode extension : CM (complete main)
Format settings, Endianness : Big
Codec ID : A_AC3
Duration : 1h 34mn
Bit rate mode : Constant
Bit rate : 640 Kbps
Channel(s) : 6 channels
Channel positions : Front: L C R, Side: L R, LFE
Sampling rate : 48.0 KHz
Bit depth : 16 bits
Compression mode : Lossy
Stream size : 431 MiB (7%)
Title : 5.1 @ 640 kbps | Blu-ray CEE
Language : Ukrainian
Default : Yes
Forced : Yes

Audio #2
ID : 3
Format :
Format/Info : Digital Theater Systems
Codec ID : A_DTS
Duration : 1h 34mn
Bit rate mode : Constant
Bit rate : 1 510 Kbps
Channel(s) : 6 channels
Channel positions : Front: L C R, Side: L R, LFE
Sampling rate : 48.0 KHz
Bit depth : 24 bits
Compression mode : Lossy
Stream size : 1 017 MiB (16%)
Title : 5.1 @ 1510 kbps
Language : English
Default : No
Forced : No

Text #1
ID : 4
Format : UTF-8
Codec ID : S_TEXT/UTF8
Codec ID/Info : UTF-8 Plain Text
Title : Full
Language : Ukrainian
Default : No
Forced : No

Text #2
ID : 5
Format : UTF-8
Codec ID : S_TEXT/UTF8
Codec ID/Info : UTF-8 Plain Text
Title : Forced
Language : Ukrainian
Default : No
Forced : No

Text #3
ID : 6
Format : UTF-8
Codec ID : S_TEXT/UTF8
Codec ID/Info : UTF-8 Plain Text
Language : English
Default : No
Forced : No

Menu
00:00:00.000 : en:Chapter 01
00:10:52.401 : en:Chapter 02
00:19:13.277 : en:Chapter 03
00:30:06.805 : en:Chapter 04
00:39:21.442 : en:Chapter 05
00:49:58.662 : en:Chapter 06
00:59:03.456 : en:Chapter 07
01:09:11.772 : en:Chapter 08
01:19:27.095 : en:Chapter 09
01:26:03.491 : en:Chapter 10
Світлини:






Джерело:
Особиста оцінка: не дивився.


 Трекер:    Зареєстрований   

Завантажити / скачати фільм українською



відео для новачків



 Зареєстрований:   2012-05-23 16:07
 Розмір:   6.17 GB 
 Оцінка фільму:   8.8/10 (Голосів: 19)
   
WolfGhoST 
Частий відвідувач


З нами з: 29.12.11
Востаннє: 17.10.13
Повідомлень: 31

2012-05-23 01:30  
якщо укр доріжка з blu-ray, то навіщо було її зжімать? Залишили б оригінал
braveboy 
Відео Гуртом - команда HD
Відео Гуртом - команда HD


З нами з: 15.06.10
Востаннє: 29.10.16
Повідомлень: 958

2012-05-23 03:40  
xfsthe

на Blu-ray CEE укр. доріжка з бітрейтом 640 kbps
може комусь потрібно ось окремо укр. саби
Ukrainian Full
Ukrainian Forced

xfsthe 
Оцифрування книг Гуртом
Оцифрування книг Гуртом


З нами з: 13.02.11
Востаннє: 11.12.16
Повідомлень: 279

2012-05-23 07:14  
braveboy написано:
на Blu-ray CEE укр. доріжка з бітрейтом 640 kbps

якщо маєте укр.доріжку 640kbps або знаєте звідки її можна звантажити, можете повідомити мені - я оновлю реліз.

Sensetivity 
VIP


З нами з: 03.05.11
Востаннє: 03.01.13
Повідомлень: 2019

2012-05-23 09:20  
xfsthe написано:
я оновлю реліз.

і замініть
Цитата:
Субтитри #1:
мова: українська
тип: програмні (м'які)
формат: PGS


та ті субтитри, що дав пан braveboy

mafhost 
Новенький


З нами з: 28.02.12
Востаннє: 11.12.16
Повідомлень: 1

2012-05-23 09:31  
Окремо укр.доріжку можливо отримати?
на dorizhky.hurtom.com не зайшов Sad (1)

xfsthe 
Оцифрування книг Гуртом
Оцифрування книг Гуртом


З нами з: 13.02.11
Востаннє: 11.12.16
Повідомлень: 279

2012-05-23 16:09  
Торент оновлено: оновлено відеоряд, звук, українські субтитри, додано форсовані.
betame 
Частий відвідувач


З нами з: 05.12.11
Востаннє: 10.12.16
Повідомлень: 28

2012-05-24 22:57  
сценаристи явно грибочків переїли
Troll1311 
Новенький


З нами з: 28.08.12
Востаннє: 08.07.13
Повідомлень: 1

2012-09-30 19:13  
на роздачу
sicheslav 
Новенький


З нами з: 15.11.09
Востаннє: 04.12.16
Повідомлень: 9

2014-07-16 19:30  
А на роздачі нікого...біда...
Ваш часовий пояс: GMT + 2 Години

Нова тема   Відповісти