Завантажити та скачати торренти українською


Микола Савчук - Золоті коломийки (2005) [WavPack] | Ethno

Нові коментарі

Нова тема   Відповісти
Автор Повідомлення
bohun 
VIP


З нами з: 21.03.09
Востаннє: 03.12.16
Повідомлень: 271

2012-05-22 10:32  
Микола Савчук - Золоті коломийки (2005) [WavPack] | Ethno

Микола Савчук - Золоті коломийки (2005) [WavPack] | Ethno

Стиль: Ethno Folk
Країна, місто: Україна, м. Коломия, Івано-Франківської області
Видавець: 6 секунд
Виконавці:
Микола Савчук - спів
Михайло Тимофіїв - сопілка, фрілка, тилинка
Михайло Миронюк - цимбали
Олег Максим'юк - скрипка
Василь Кузьменчук - бубон
Пісні:
    01. Коломийки до танцю "Гуцулка" (уривок) (03:18)
    02. Коломийки-співаночки (03:56)
    03. Гуцули (04:01)
    04. Села й міста (03:38)
    05. Рекрутські (03:51)
    06. У листах (04:11)
    07. Імена (03:55)
    08. Полонинські (04:03)
    09. Заробітчанські й емігрантські (03:46)
    10. Парубоцтво (05:57)
    11. Дівоцтво (04:01)
    12. Кохання (04:15)
    13. Дитині (колискові) (04:54)
    14. Зрада й розлука (03:53)
    15. Пияки й пияцтво (03:43)
    16. Старість (04:28)
    17. На набутках (застільні) (04:03)
    18. Смішні (жартівливі) (03:35)

Тривалість: 01:13:35
Мова: українська
Аудіо-кодек: WavPack
Бітрейт: 946 кбіт/с
log
Exact Audio Copy V1.0 beta 3 from 29. August 2011

EAC extraction logfile from 22. May 2012, 10:58

Микола Савчук / Золоті коломийки

Used drive : TSSTcorpCDDVDW TS-L633F Adapter: 2 ID: 0

Read mode : Secure
Utilize accurate stream : Yes
Defeat audio cache : Yes
Make use of C2 pointers : Yes

Combined read/write offset correction : 0
Overread into Lead-In and Lead-Out : No
Fill up missing offset samples with silence : Yes
Delete leading and trailing silent blocks : No
Null samples used in CRC calculations : Yes
Used interface : Native Win32 interface for Win NT & 2000

Used output format : User Defined Encoder
Selected bitrate : 768 kBit/s
Quality : High
Add ID3 tag : No
Command line compressor : C:\Program Files (x86)\Exact Audio Copy\wavpack-4.60.1\wavpack.exe

TOC of the extracted CD

Track | Start | Length | Start sector | End sector
---------------------------------------------------------
1 | 0:00.00 | 3:18.30 | 0 | 14879
2 | 3:18.30 | 3:56.45 | 14880 | 32624
3 | 7:15.00 | 4:01.46 | 32625 | 50745
4 | 11:16.46 | 3:38.43 | 50746 | 67138
5 | 14:55.14 | 3:51.65 | 67139 | 84528
6 | 18:47.04 | 4:11.64 | 84529 | 103417
7 | 22:58.68 | 3:55.22 | 103418 | 121064
8 | 26:54.15 | 4:03.32 | 121065 | 139321
9 | 30:57.47 | 3:46.12 | 139322 | 156283
10 | 34:43.59 | 5:57.13 | 156284 | 183071
11 | 40:40.72 | 4:01.21 | 183072 | 201167
12 | 44:42.18 | 4:15.05 | 201168 | 220297
13 | 48:57.23 | 4:54.36 | 220298 | 242383
14 | 53:51.59 | 3:53.03 | 242384 | 259861
15 | 57:44.62 | 3:43.36 | 259862 | 276622
16 | 61:28.23 | 4:28.30 | 276623 | 296752
17 | 65:56.53 | 4:03.66 | 296753 | 315043
18 | 70:00.44 | 3:35.02 | 315044 | 331170

Range status and errors

Selected range

Filename C:\Users\Микола\Desktop\ааа\Микола Савчук - Золоті коломийки.wv

Peak level 97.7 %
Extraction speed 6.1 X
Range quality 100.0 %
Copy CRC E2AA0275
Copy OK

No errors occurred

End of status report

==== Log checksum 515C4096B1A795A0A42B4D25B783916BAA5F39B5FBD57F446538A37A48EAFB74 ====
Джерело: Власна колекція
Додаткова інформація:
"Золоті коломийки" - це не штучні й не авторські співанки. Це - краще з того, що видумав і склав наш гуцульський люд у своїх Карпатах упродовж століть. Це справжні гуцульські мелодії з сіл Коломийського, Косівського та Верховинського районів Івано-Франківської області. Це - 360 куплетів і 40 мелодій, дбайливо відібраних Миколою Савчуком і Михайлом Тимофіївим з міста Коломиї.


Якщо Ви справді бажаєте підтримати українське - після прослуховування, якщо музика вам сподобалась, придбайте ліцензійний диск. Підтримаймо вітчизняних виконавців!


Срібний реліз (на рейтинг впливає 50% завантаженого)
 Трекер:    Зареєстрований   

Завантажити / скачати українську музику



відео для новачків



 Зареєстрований:   2012-05-22 10:33
 Розмір:   512 MB 
 Оцінка музики:   10/10 (Голосів: 13)
   
musicfan 
Модератор музики


З нами з: 27.01.09
Востаннє: 02.12.16
Повідомлень: 893

2012-05-22 11:11  
Додайте вміст log файлу під спойлер
bohun 
VIP


З нами з: 21.03.09
Востаннє: 03.12.16
Повідомлень: 271

2012-05-22 11:25  
додав
erqwert 
Частий відвідувач


З нами з: 22.08.09
Востаннє: 04.12.16
Повідомлень: 32

2012-05-22 13:45  
Микола, можеш переконвертувати в mp3 і виставити???
bohun 
VIP


З нами з: 21.03.09
Востаннє: 03.12.16
Повідомлень: 271

2012-05-22 14:03  
Цитата:
можеш переконвертувати в mp3 і виставити???

ок, але трішки пізніше

RomadinR 
Новенький


З нами з: 19.08.08
Востаннє: 23.11.16
Повідомлень: 12

2012-06-04 17:34  
Для себе переконвертував у OGG/Vorbis (quality 6). Якщо кому треба, можу викласти.
bohun 
VIP


З нами з: 21.03.09
Востаннє: 03.12.16
Повідомлень: 271

2012-06-14 13:47  
Ваш часовий пояс: GMT + 2 Години

Нова тема   Відповісти