Завантажити та скачати торренти українською


Коріолан / Coriolanus (2011) 720p Ukr/Eng | Sub Eng

Нові коментарі

Нова тема   Відповісти
Автор Повідомлення
xfsthe 
Оцифрування книг Гуртом
Оцифрування книг Гуртом


З нами з: 13.02.11
Востаннє: 07.12.16
Повідомлень: 279

2012-05-22 10:09  
Коріолан / Coriolanus (2011) 720p Ukr/Eng | Sub Eng

Коріолан / Coriolanus (2011) 720p Ukr/Eng | Sub Eng


Жанр: драма, трилер
Країна: Великобританія



Кіностудія / кінокомпанія: Hermetof Pictures, Magna Films, Icon Entertainment International
Режисер: Ральф Файнс
Актори: Джерард Батлер, Рейф Файнс, Лубна Азабал, Ашраф Бархом, Зоран Сіса, Марко Стоянович та інші.

Сюжет:
Сюжет картини заснований на легенді про полководця Гнея Марція Коріолана, який жив у Римі в п'ятому столітті до нашої ери. Дія картини з Древнього Риму перенесена в наші дні, і замість мечів головні герої "Коріолана" стискають в руках автомати.


Тривалість: 02:03:19
Якість: 720p
Відео:
розмір кадру: 1280 х 544
бітрейт: 4 832 кб/с
кодек:

Аудіо #1:
мова: українська
переклад: багатоголосий закадровий
кодек: 5.1
бітрейт: 384 кб/с

Аудіо #2:
мова: англійська
переклад: оригінал
кодек: 5.1
бітрейт: 1510 кб/с

Субтитри #1:
мова: англійська
тип: програмні (м'які)
формат: *.srt

Озвучено:
на замовлення
MediaInfo

General
Unique ID : 216754192828255499897774442301911498024 (0xA31156CC3D39766B6598F1AFD6BC7D28)
Complete name : /media/soft/Coriolanus (2011) [ukr,eng] sub[eng] 720p.mkv
Format : Matroska
Format version : Version 2
File size : 5.79 GiB
Duration : 2h 3mn
Overall bit rate : 6 726 Kbps
Movie name : Коріолан / Coriolanus (2011) 720p
Encoded date : UTC 2012-05-22 07:39:51
Writing application : mkvmerge v5.1.0 ('And so it goes') built on Feb 1 2012 11:31:23
Writing library : libebml v1.2.2 + libmatroska v1.3.0

Video
ID : 1
Format : AVC
Format/Info : Advanced Video Codec
Format profile : [email protected]
Format settings, CABAC : Yes
Format settings, ReFrames : 5 frames
Codec ID : V_MPEG4/ISO/AVC
Duration : 2h 3mn
Bit rate : 4 832 Kbps
Width : 1 280 pixels
Height : 544 pixels
Display aspect ratio : 2.35:1
Frame rate : 23.976 fps
Color space : YUV
Chroma subsampling : 4:2:0
Bit depth : 8 bits
Scan type : Progressive
Bits/(Pixel*Frame) : 0.289
Stream size : 4.05 GiB (70%)
Title : Коріолан / Coriolanus (2011) 720p
Writing library : core 124 r2197 69a0443
Encoding settings : cabac=1 / ref=5 / deblock=1:0:0 / analyse=0x3:0x133 / me=umh / subme=7 / psy=1 / psy_rd=1.00:0.00 / mixed_ref=1 / me_range=16 / chroma_me=1 / trellis=1 / 8x8dct=1 / cqm=0 / deadzone=21,11 / fast_pskip=0 / chroma_qp_offset=-2 / threads=18 / sliced_threads=0 / nr=0 / decimate=1 / interlaced=0 / bluray_compat=0 / constrained_intra=0 / bframes=3 / b_pyramid=2 / b_adapt=1 / b_bias=0 / direct=1 / weightb=1 / open_gop=0 / weightp=2 / keyint=250 / keyint_min=23 / scenecut=40 / intra_refresh=0 / rc_lookahead=40 / rc=2pass / mbtree=1 / bitrate=4832 / ratetol=1.0 / qcomp=0.60 / qpmin=0 / qpmax=69 / qpstep=4 / cplxblur=20.0 / qblur=0.5 / ip_ratio=1.40 / aq=1:1.00
Language : English
Default : Yes
Forced : Yes

Audio #1
ID : 2
Format : AC-3
Format/Info : Audio Coding 3
Mode extension : CM (complete main)
Format settings, Endianness : Big
Codec ID : A_AC3
Duration : 2h 3mn
Bit rate mode : Constant
Bit rate : 384 Kbps
Channel(s) : 6 channels
Channel positions : Front: L C R, Side: L R, LFE
Sampling rate : 48.0 KHz
Bit depth : 16 bits
Compression mode : Lossy
Stream size : 339 MiB (6%)
Title : 5.1 @ 384 kbps | "ТакТребаПродакшн" для Інтер
Language : Ukrainian
Default : Yes
Forced : Yes

Audio #2
ID : 3
Format :
Format/Info : Digital Theater Systems
Codec ID : A_DTS
Duration : 2h 3mn
Bit rate mode : Constant
Bit rate : 1 510 Kbps
Channel(s) : 6 channels
Channel positions : Front: L C R, Side: L R, LFE
Sampling rate : 48.0 KHz
Bit depth : 24 bits
Compression mode : Lossy
Stream size : 1.30 GiB (22%)
Title : 5.1 @ 1510 kbps
Language : English
Default : No
Forced : No

Text
ID : 4
Format : UTF-8
Codec ID : S_TEXT/UTF8
Codec ID/Info : UTF-8 Plain Text
Language : English
Default : No
Forced : No
Світлини:






Джерело: &
Особиста оцінка: не дивився.


Подяка панам:
slavik_v_z за запис звуку.
Romario_O за українську звукову доріжку.


 Трекер:    Зареєстрований   

Завантажити / скачати фільм українською



відео для новачків



 Зареєстрований:   2012-05-22 10:09
 Розмір:   5.79 GB 
 Оцінка фільму:   9.7/10 (Голосів: 12)
   
Інші релізи
   Коріолан / Coriolanus (2011) AVC Ukr/Eng AngryBirdsUA  3 / 0   2.51 GB   2012-05-27 09:17 
   Коріолан / Coriolanus (2011) Ukr/Eng | Sub Eng Romario_O  4 / 0   2.19 GB   2012-05-21 19:21 
Virake 
Localize Team
Localize Team


З нами з: 07.07.09
Востаннє: 08.12.16
Повідомлень: 4064

2012-05-22 13:28  
чи немає українських субтитрів до цього фільму?
taras1994 
Почесний оцифрувальник літератури


З нами з: 23.03.12
Востаннє: 30.11.16
Повідомлень: 5096

2012-05-22 14:27  
Субтитри будь-ласка в реліз.
xfsthe 
Оцифрування книг Гуртом
Оцифрування книг Гуртом


З нами з: 13.02.11
Востаннє: 07.12.16
Повідомлень: 279

2012-05-22 15:10  
taras1994 написано:
Субтитри будь-ласка в реліз.

маєте українські субтитри чи знаєте звідки їх можна звантажити?

taras1994 
Почесний оцифрувальник літератури


З нами з: 23.03.12
Востаннє: 30.11.16
Повідомлень: 5096

2012-05-22 20:09  
xfsthe написано:
маєте українські субтитри чи знаєте звідки їх можна звантажити?

Ні, проте приємно бачити переклад не знайомого англійського слова, коли є українські субтитри. Дякую і за такий формат. А якщо субтитрів нема в природі не страшно, заглянемо в словник Wide grin

Virake 
Localize Team
Localize Team


З нами з: 07.07.09
Востаннє: 08.12.16
Повідомлень: 4064

2012-05-23 11:28  
то їх таки немає в природі? добре, а то я вже зачекався на роз'яснення. вантажу фільм.
leroykendall 
Модератор HD


З нами з: 03.01.11
Востаннє: 20.11.16
Повідомлень: 749

2012-06-17 15:57  
xfsthe написано:

Режисер: Ральф Файнс
Актори: Джерард Батлер, Рейф Файнс

Актор і режисер - одна й та сама людина. Я частіше чую ім'я Рейф.

Ваш часовий пояс: GMT + 2 Години

Нова тема   Відповісти