Завантажити та скачати торренти українською


Гурт "Отава" та Київський кобзарський цех - "Йа ми ходимо, проходжаємо...". Забуті пісні Київщини" (2005) [FLAC] | Folk

Нові коментарі

Нова тема   Відповісти
Автор Повідомлення
gosha.samovar 
VIP


З нами з: 08.09.10
Востаннє: 09.12.16
Повідомлень: 400

2012-05-21 11:40  
Гурт "Отава" та Київський кобзарський цех - "Йа ми ходимо, проходжаємо...". Забуті пісні Київщини" (2005) [FLAC] | Folk

Гурт "Отава" та Київський кобзарський цех - "Йа ми ходимо, проходжаємо...". Забуті пісні Київщини" (2005) [FLAC] | Folk


Стиль: Folk
Країна, місто: Україна, Київ
Видавець: Оберіг XXI
Виконавці:
    Фольклористичний гурт "Отава":
      Ганна Коропніченко - 5 (соло), 12, 14, 16, 20 (заспів), 1, 2, 3, 6, 8, 19, 10, 15, 18
      Катерина Крижанівська - 12 (вивід), 1, 2, 3, 8, 9, 10, 14, 15, 20
      Олена Крута - 2, 8, 10, 15 (заспів), 1, 3, 4, 6, 9, 12, 14, 16, 18, 20
      Леся Васехо - 6 (заспів), 1, 2, 3, 8, 9, 12, 14, 15, 16, 18, 20
      Ілько Галушко - 19 (заспів), 1, 3, 6, 12, 16, 18, 20
      Юрко Пастушенко - 17 (соло), 1, 3 (заспів), 12, 20
      Наталка Пастушенко - 12, 20
      Олег Циганов - 6, 16, 18


    Київський кобзарський цех:
      Ярема Вадим Шевчук - 7 (ліра), 13, 21 (старосвітська бандура)
      Тарас Компаніченко - 4, 11, 19 (ліра)


    Запрошені виконавці:
      Ярослава Чистякова (гурт "Толока") - 9 (заспів), 6, 18 (вивід), 2, 16
      Едуард Драч - 6, 16, 20
      Роман Єненко (гурт "Древо") - 20

Пісні:
    01. Скінія ізлатая Ковчег Завєта - церковна колядка (с. Триліси, Фастівський р-н)
    02. Йа ми ходимо, проходжаємо - колядка (с. Забуччя, Києво-Святошинський р-н)
    03. Присвятий Васілій пішов щедрувати - щедрівка (с. Жердова, Броварський р-н)
    04. "Варварії"* - псальма (м. Ставище Таращанського повіту на Київщині; записано від лірника Мокія Брониченка)
    05. Вечірняя зіронька зажигається - лірична (с. Пасківщина, Згурівський р-н)
    06. Птичка невеличка по полю літала - кант (с. Озерне, Яготинський р-н)
    07. "Христу на кресті"* - псальма (с. Бузівка Таращанського повіту на Київщині; записано від лірника Прохора Завертана)
    08. Почало на весну да й воскресати - веснянка (с. Пасківщина, Згурівський р-н)
    09. Соловей, соловейко - петрівка (с. Пасківщина, Згурівський р-н)
    10. Не куй, зозуле, й у діброві - веснянка (с. Безусівка, Драбівський р-н)
    11. "Георгію"* - кант (с. Богатирка Таращанського повіту на Київщині; записано від лірника Ридька)
    12. Ой, у лузі, на дубочку - лірична (с. Лехнівка, Баришівський р-н)
    13. Нема в світі правди - псальма з репертуару київського бандуриста Георгія Ткаченка
    14. Що я в батька та й на йодході - весільна (с. Безуглівка, Згурівський р-н)
    15. Послухайте, подружечки - весільна (с. Нечипорівка, Яготинський р-н)
    16. Ой, хто п'є - тому наливайте - до чарки (с. Заворичі, Броварський р-н)
    17. Ой, з-за гори да й з-за кручі - чумацька (с. Забуччя, Києво-Святошинський р-н)
    18. Да забєлєлі снєжки, забєлєлі бєли - солдатська (с. Богданівка, Яготинський р-н)
    19. "Про Швачку та Бондаренка"** - гайдамацька пісня 1768 р. (від лірника під Києвом)
    20. Бог Создатєль всьому свєту - многоліття (с. Ніжиловичі, Макарівський р-н)
    21. Ісусе мій, прелюбезний - акровірш святителя Димитрія Ростовського [Данила Туптала] за київським бандуристом Георгієм Ткаченком

    * "Ліра і її мотиви". Київ 1903. Зібрав на Київщині Порфирій Демуцький
    ** Лисенко М. (Збірник українських пісень.) Вип.2, №6. - Київ-Лейпциг, 1868-1911
EAC log
Exact Audio Copy V1.0 beta 3 from 29. August 2011

Отчёт EAC об извлечении, выполненном 20. мая 2012, 21:15

Гурт "Отава" та Київський кобзарський цех / "Йа ми ходимо, проходжаємо...". Забуті пісні Київщини

Дисковод: PHILIPS SPD2519T Adapter: 2 ID: 0

Режим чтения : Достоверность
Использование точного потока : Да
Отключение кэша аудио : Да
Использование указателей C2 : Нет

Коррекция смещения при чтении : 6
Способность читать области Lead-in и Lead-out : Нет
Заполнение пропущенных сэмплов тишиной : Да
Удаление блоков с тишиной в начале и конце : Нет
При вычислениях CRC использовались нулевые сэмплы : Да
Интерфейс : Встроенный Win32-интерфейс для Win NT/2000

Выходной формат : Пользовательский кодировщик
Выбранный битрейт : 1024 kBit/s
Качество : Высокий
Добавление ID3-тега : Нет
Утилита сжатия : D:\soft_2\EAC\Exact Audio Copy\Flac\flac.exe
Дополнительные параметры : -V -8 -T "Date=%year%" -T "Genre=%genre%" %source%

TOC извлечённого CD

Трек | Старт | Длительность | Начальный сектор | Конечный сектор
---------------------------------------------------------------------
1 | 0:00.00 | 3:31.58 | 0 | 15882
2 | 3:31.58 | 0:53.07 | 15883 | 19864
3 | 4:24.65 | 1:49.31 | 19865 | 28070
4 | 6:14.21 | 7:15.11 | 28071 | 60706
5 | 13:29.32 | 3:26.14 | 60707 | 76170
6 | 16:55.46 | 4:30.65 | 76171 | 96485
7 | 21:26.36 | 4:07.56 | 96486 | 115066
8 | 25:34.17 | 1:54.13 | 115067 | 123629
9 | 27:28.30 | 2:28.22 | 123630 | 134751
10 | 29:56.52 | 2:38.37 | 134752 | 146638
11 | 32:35.14 | 5:04.23 | 146639 | 169461
12 | 37:39.37 | 3:14.06 | 169462 | 184017
13 | 40:53.43 | 2:24.56 | 184018 | 194873
14 | 43:18.24 | 4:20.60 | 194874 | 214433
15 | 47:39.09 | 0:50.69 | 214434 | 218252
16 | 48:30.03 | 2:39.00 | 218253 | 230177
17 | 51:09.03 | 5:32.22 | 230178 | 255099
18 | 56:41.25 | 5:12.18 | 255100 | 278517
19 | 61:53.43 | 4:23.01 | 278518 | 298243
20 | 66:16.44 | 2:27.73 | 298244 | 309341
21 | 68:44.42 | 4:00.59 | 309342 | 327400

Характеристики диапазона извлечения и сообщения об ошибках

Выбранный диапазон

Имя файла E:\Музіка!\from EAC\Гурт Отава та Київський кобзарський цех\Гурт ''Отава'' та Київський кобзарський цех - ''Йа ми ходимо, проходжаємо...''. Забуті пісні Київщини.wav

Пиковый уровень 100.0 %
Скорость извлечения 6.7 X
Качество диапазона 99.9 %
CRC теста 2FC72BE4
CRC копии 3B63C066
Копирование... OK

Ошибок не произошло

AccurateRip: сводка

Трек 1 отсутствует в базе данных
Трек 2 отсутствует в базе данных
Трек 3 отсутствует в базе данных
Трек 4 отсутствует в базе данных
Трек 5 отсутствует в базе данных
Трек 6 отсутствует в базе данных
Трек 7 отсутствует в базе данных
Трек 8 отсутствует в базе данных
Трек 9 отсутствует в базе данных
Трек 10 отсутствует в базе данных
Трек 11 отсутствует в базе данных
Трек 12 отсутствует в базе данных
Трек 13 отсутствует в базе данных
Трек 14 отсутствует в базе данных
Трек 15 отсутствует в базе данных
Трек 16 отсутствует в базе данных
Трек 17 отсутствует в базе данных
Трек 18 отсутствует в базе данных
Трек 19 отсутствует в базе данных
Трек 20 отсутствует в базе данных
Трек 21 отсутствует в базе данных

Ни одного трека нет в базе AccurateRip

Конец отчёта

==== Контрольная сумма отчёта 795D69A93C814133B11F4F396CC36BBC650241D007F5D7C225E8F2476878AB20 ====
Спектр
Тривалість: 01:12:45
Мова: українська
Аудіо-кодек: FLAC
Бітрейт: 709 кб/с
Джерело: власний ріп власного CD
Додаткова інформація


Від себе додам: диск дуже цікавий, назва говорить сама за себе.
Якщо Ви справді бажаєте підтримати українське - після прослуховування, якщо музика вам сподобалась, придбайте ліцензійний диск. Підтримаймо вітчизняних виконавців!


Срібний реліз (на рейтинг впливає 50% завантаженого)
 Трекер:    Зареєстрований   

Завантажити / скачати українську музику



відео для новачків



 Зареєстрований:   2012-05-21 11:40
 Розмір:   435 MB 
 Оцінка музики:   10/10 (Голосів: 10)
   
virtus8hur 
Попереджень: 1
Попереджень: 1 


З нами з: 06.02.10
Востаннє: 09.12.16
Повідомлень: 2965

2012-05-21 22:32  
А чому усі пісні йдеть одним файлом - трохи незручно.
ssTAss 
Модератор музики


З нами з: 05.07.08
Востаннє: 09.12.16
Повідомлень: 10949

2012-05-21 22:46  
virtus8hur написано:
А чому усі пісні йдеть одним файлом - трохи незручно.

http://toloka.to/t8404

gosha.samovar 
VIP


З нами з: 08.09.10
Востаннє: 09.12.16
Повідомлень: 400

2012-05-22 10:07  
Цитата:
А чому усі пісні йдеть одним файлом - трохи незручно.

Якщо це для вас становить проблему, скачайте і встановіть безкоштовну Medieval CUE Splitter ( http://www.medieval.it/cuesplitter-pc/menu-id-71.html ) - і вона наріже для вас файли хоч кубиками Wink (1) .

kolpavel 
VIP


З нами з: 04.05.14
Востаннє: 09.12.16
Повідомлень: 1061

2015-06-21 22:39  
FLAC?! Беру, беру, забираю.
Ваш часовий пояс: GMT + 2 Години

Нова тема   Відповісти