Завантажити та скачати торренти українською


Джейн Ейр / Jane Eyre (2011) 720p Ukr/Eng | Sub Eng

Нові коментарі

Нова тема   Відповісти
Автор Повідомлення
xfsthe 
Оцифрування книг Гуртом
Оцифрування книг Гуртом


З нами з: 13.02.11
Востаннє: 01.12.16
Повідомлень: 279

2012-05-21 10:33  
Джейн Ейр / Jane Eyre (2011) 720p Ukr/Eng | Sub Eng

Джейн Ейр / Jane Eyre (2011) 720p Ukr/Eng | Sub Eng


Жанр: пригоди, драма, мелодрама
Країна: США



Кіностудія / кінокомпанія: Focus Features, BBC Films, Ruby Films
Режисер: Кері Фукунага
Актори: Міа Васіковьска, Майкл Фасбендер, Джеймі Бел, Джуді Денч та ін.

Сюжет:
Вікторіанська Англія. Після восьми років, проведених в пансіоні для бідних дівчаток, сирота Джейн Ейр отримує місце гувернантки в Торнфілді - вотчині Едварда Ферфакса Рочестера. Господар маєтку рідко навідується в рідні краї, а в його відсутність Джейн повинна наглядати за восьмирічною Адель Варанс - вихованкою аристократа. І ось одного разу Рочестер повертається. Так починається одна з найвідоміших романтичних історій в європейській літературі і світовому кіно ...


Тривалість: 02:00:03
Якість: 720p
Відео:
розмір кадру: 1280 х 696
бітрейт: 5 000 кб/с
кодек:

Аудіо #1:
мова: українська
переклад: багатоголосий закадровий
кодек: 5.1
бітрейт: 384 кб/с

Аудіо #2:
мова: англійська
переклад: оригінал
кодек: 5.1
бітрейт: 1510 кб/с

Субтитри #1:
мова: англійська
тип: програмні (м'які)
формат: *.srt
MediaInfo

General
Unique ID : 97034530717681275084925594597752737752 (0x49002BBBD5972D604DBA37F698C28FD8)
Complete name : /media/soft/Jane Eyre (2011) [ukr,eng] sub[eng] 720p.mkv
Format : Matroska
Format version : Version 2
File size : 5.79 GiB
Duration : 2h 0mn
Overall bit rate : 6 892 Kbps
Movie name : Джейн Ейр / Jane Eyre (2011) 720p
Encoded date : UTC 2012-05-22 07:16:34
Writing application : mkvmerge v5.1.0 ('And so it goes') built on Feb 1 2012 11:31:23
Writing library : libebml v1.2.2 + libmatroska v1.3.0

Video
ID : 1
Format : AVC
Format/Info : Advanced Video Codec
Format profile : [email protected]
Format settings, CABAC : Yes
Format settings, ReFrames : 5 frames
Codec ID : V_MPEG4/ISO/AVC
Duration : 2h 0mn
Bit rate : 5 000 Kbps
Width : 1 280 pixels
Height : 696 pixels
Display aspect ratio : 1.85:1
Frame rate : 23.976 fps
Color space : YUV
Chroma subsampling : 4:2:0
Bit depth : 8 bits
Scan type : Progressive
Bits/(Pixel*Frame) : 0.234
Stream size : 4.08 GiB (71%)
Title : Джейн Ейр / Jane Eyre (2011) 720p
Writing library : core 116 r2044 392e762
Encoding settings : cabac=1 / ref=5 / deblock=1:0:0 / analyse=0x3:0x113 / me=umh / subme=8 / psy=1 / psy_rd=1.00:0.00 / mixed_ref=1 / me_range=16 / chroma_me=1 / trellis=1 / 8x8dct=1 / cqm=0 / deadzone=21,11 / fast_pskip=1 / chroma_qp_offset=-2 / threads=12 / sliced_threads=0 / nr=0 / decimate=1 / interlaced=0 / bluray_compat=0 / constrained_intra=0 / bframes=3 / b_pyramid=2 / b_adapt=2 / b_bias=0 / direct=3 / weightb=1 / open_gop=0 / weightp=2 / keyint=240 / keyint_min=24 / scenecut=40 / intra_refresh=0 / rc_lookahead=50 / rc=2pass / mbtree=1 / bitrate=5000 / ratetol=1.0 / qcomp=0.60 / qpmin=0 / qpmax=69 / qpstep=4 / cplxblur=20.0 / qblur=0.5 / ip_ratio=1.40 / aq=1:1.00
Language : English
Default : Yes
Forced : Yes

Audio #1
ID : 2
Format : AC-3
Format/Info : Audio Coding 3
Mode extension : CM (complete main)
Format settings, Endianness : Big
Codec ID : A_AC3
Duration : 2h 0mn
Bit rate mode : Constant
Bit rate : 384 Kbps
Channel(s) : 6 channels
Channel positions : Front: L C R, Side: L R, LFE
Sampling rate : 48.0 KHz
Bit depth : 16 bits
Compression mode : Lossy
Delay relative to video : 24ms
Stream size : 330 MiB (6%)
Title : 5.1 384 kbps | K1
Language : Ukrainian
Default : Yes
Forced : Yes

Audio #2
ID : 3
Format :
Format/Info : Digital Theater Systems
Codec ID : A_DTS
Duration : 2h 0mn
Bit rate mode : Constant
Bit rate : 1 510 Kbps
Channel(s) : 6 channels
Channel positions : Front: L C R, Side: L R, LFE
Sampling rate : 48.0 KHz
Bit depth : 24 bits
Compression mode : Lossy
Stream size : 1.27 GiB (22%)
Title : 5.1 @ 1510 kbps
Language : English
Default : No
Forced : No

Text
ID : 4
Format : UTF-8
Codec ID : S_TEXT/UTF8
Codec ID/Info : UTF-8 Plain Text
Language : English
Default : No
Forced : No
Світлини:






Джерело: &
Особиста оцінка: не дивився.


Подяка панам:
MAKAPOHHIK & OlegCena за сирий звук.
Breniak за зведення звуку.
Vasua95 за українську доріжку 5.1.
StarGameR за постер.


 Трекер:    Зареєстрований   

Завантажити / скачати фільм українською



відео для новачків



 Зареєстрований:   2012-05-22 09:34
 Розмір:   5.79 GB 
 Оцінка фільму:   9.1/10 (Голосів: 11)
   
Інші релізи
   Джейн Ейр / Jane Eyre (2011) AngryBirdsUA  4 / 0   2.13 GB   2012-05-21 19:59 
   Джейн Ейр / Jane Eyre (2011) AVC Ukr/Eng | Sub Eng Gelios  3 / 0   1.96 GB   2012-05-21 10:46 
   Джейн Ейр / Jane Eyre (2011) Ukr/Eng | Sub Eng Breniak  4 / 0   2.35 GB   2012-05-20 20:42 
Прокурор 
VIP


З нами з: 24.06.13
Востаннє: 03.12.16
Повідомлень: 343

2014-06-27 16:56  
читаю книгу заразHappy
планую подивитисяHappy

Ваш часовий пояс: GMT + 2 Години

Нова тема   Відповісти