Завантажити та скачати торренти українською


Шерлок Холмс: Дилогія / Sherlock Holmes: Dilogy (2009-2011) 720p Ukr/Eng | Sub Ukr/Eng

Нові коментарі

Нова тема   Відповісти
Автор Повідомлення
Zeus62 
Відео Гуртом - команда HD
Відео Гуртом - команда HD


З нами з: 29.12.08
Востаннє: 16.11.16
Повідомлень: 330

2012-05-19 22:41  
Шерлок Холмс: Дилогія / Sherlock Holmes: Dilogy (2009-2011) 720p Ukr/Eng | Sub Ukr/Eng


Жанр: екшн, пригодницький, детектив, кримінальний
Країна: США, Великобританія

Кіностудія / кінокомпанія: Warner Bros. Pictures, Village Roadshow Pictures Silver Pictures
Режисер: Гай Річі
Шерлок Холмс / Sherlock Holmes (2009) 720p Ukr/Eng | Sub Ukr/Eng:

Шерлок Холмс / Sherlock Holmes (2009) 720p Ukr/Eng | Sub Ukr/Eng

Шерлок Холмс: Дилогія / Sherlock Holmes: Dilogy (2009-2011) 720p Ukr/Eng | Sub Ukr/Eng




Актори: Роберт Дауні мол., Джуд Лоу, Рейчел МакАдамс, Марк Стронг, Едді Марсан, Роберт Мейллет, Джеральдін Джеймс, Келлі Райлі, Вільям Х'юстон, Ганс Метісон

Сюжет:
Детектив Шерлок Холмс і його партнер Доктор Ватсон беруть участь в битві дотепності і сили, чия змова — загроза всій Англії.


Тривалість: 02:08:24
Якість:
Відео:
кодек:
розмір кадру: 1280 х 720
бітрейт: 3891 кб/с

Аудіо # 1:
мова: українська
переклад: професійний дубльований
кодек: 5.1
бітрейт: 448 кб/с

Аудіо # 2:
мова: англійська
переклад: оригінал
кодек: 5.1
бітрейт: 384 кб/с

Субтитри # 1:
мова: українська (Forced) [на французьку мову]
тип: програмні(м’які)
формат: *.srt

Субтитри # 2:
мова: англійська (SDH)
тип: пререндерні
формат: *.pgs
MediaInfo:

File size : 4.25 GiB
Duration : 2h 8mn
Overall bit rate : 4 733 Kbps
Encoded date : UTC 2012-05-20 08:06:23
Writing application : mkvmerge v5.5.0 ('Healer') built on Apr 7 2012 12:04:29
Writing library : libebml v1.2.2 + libmatroska v1.3.0

Video
ID : 1
Format : AVC
Format/Info : Advanced Video Codec
Format profile : [email protected]
Format settings, CABAC : Yes
Format settings, ReFrames : 9 frames
Codec ID : V_MPEG4/ISO/AVC
Duration : 2h 8mn
Bit rate : 3 891 Kbps
Width : 1 280 pixels
Height : 720 pixels
Display aspect ratio : 16:9
Frame rate mode : Variable
Frame rate : 23.976 fps
Color space : YUV
Chroma subsampling : 4:2:0
Bit depth : 8 bits
Scan type : Progressive
Bits/(Pixel*Frame) : 0.176
Stream size : 3.41 GiB (80%)
Title : For Hurtom by Zeus62
Writing library : core 112
Encoding settings : cabac=1 / ref=9 / deblock=1:-3:-3 / analyse=0x3:0x113 / me=umh / subme=10 / psy=1 / psy_rd=1,00:0,00 / mixed_ref=1 / me_range=64 / chroma_me=1 / trellis=2 / 8x8dct=1 / cqm=0 / deadzone=21,11 / fast_pskip=1 / chroma_qp_offset=-2 / threads=9 / sliced_threads=0 / nr=0 / decimate=1 / interlaced=0 / constrained_intra=0 / bframes=9 / b_pyramid=2 / b_adapt=2 / b_bias=0 / direct=1 / weightb=1 / open_gop=0 / weightp=2 / keyint=240 / keyint_min=23 / scenecut=40 / intra_refresh=0 / rc_lookahead=50 / rc=2pass / mbtree=1 / bitrate=3891 / ratetol=1,0 / qcomp=0,60 / qpmin=3 / qpmax=51 / qpstep=4 / cplxblur=20,0 / qblur=0,5 / ip_ratio=1,40 / aq=1:1,00
Language : Ukrainian
Default : Yes
Forced : No
Color primaries : BT.709-5, BT.1361, IEC 61966-2-4, SMPTE RP177
Transfer characteristics : BT.709-5, BT.1361
Matrix coefficients : BT.709-5, BT.1361, IEC 61966-2-4 709, SMPTE RP177

Audio #1
ID : 2
Format : AC-3
Format/Info : Audio Coding 3
Mode extension : CM (complete main)
Format settings, Endianness : Big
Codec ID : A_AC3
Duration : 2h 8mn
Bit rate mode : Constant
Bit rate : 448 Kbps
Channel(s) : 6 channels
Channel positions : Front: L C R, Side: L R, LFE
Sampling rate : 48.0 KHz
Bit depth : 16 bits
Compression mode : Lossy
Stream size : 411 MiB (9%)
Language : Ukrainian
Default : Yes
Forced : No

Audio #2
ID : 3
Format : AC-3
Format/Info : Audio Coding 3
Mode extension : CM (complete main)
Format settings, Endianness : Big
Codec ID : A_AC3
Duration : 2h 8mn
Bit rate mode : Constant
Bit rate : 384 Kbps
Channel(s) : 6 channels
Channel positions : Front: L C R, Side: L R, LFE
Sampling rate : 48.0 KHz
Bit depth : 16 bits
Compression mode : Lossy
Stream size : 353 MiB (8%)
Language : English
Default : No
Forced : No

Text #1
ID : 4
Format : UTF-8
Codec ID : S_TEXT/UTF8
Codec ID/Info : UTF-8 Plain Text
Title : Forced
Language : Ukrainian
Default : Yes
Forced : No

Text #2
ID : 5
Format : PGS
Muxing mode : zlib
Codec ID : S_HDMV/PGS
Codec ID/Info : The same subtitle format used on BDs/HD-DVDs
Title : SDH
Language : English
Default : No
Forced : No
log:

[info]: frame I:2144 Avg QP:13,78 size:120035 PSNR Mean Y:49,46 U:53,62 V:54,72 Avg:50,52 Global:50,15
[info]: frame P:41902 Avg QP:17,12 size: 41994 PSNR Mean Y:47,10 U:52,44 V:53,24 Avg:48,27 Global:47,61
[info]: frame B:140668 Avg QP:21,00 size: 12293 PSNR Mean Y:45,35 U:52,21 V:53,14 Avg:46,70 Global:46,16
[info]: consecutive B-frames: 1,5% 2,2% 8,4% 28,5% 19,9% 35,8% 2,7% 0,5% 0,2% 0,2%
[info]: mb I I16..4: 7,9% 73,1% 19,1%
[info]: mb P I16..4: 3,3% 13,5% 1,5% P16..4: 37,0% 22,8% 10,5% 0,0% 0,0% skip:11,4%
[info]: mb B I16..4: 0,2% 1,0% 0,1% B16..8: 37,8% 9,3% 2,2% direct: 5,9% skip:43,4% L0:41,5% L1:46,8% BI:11,7%
[info]: 8x8 transform intra:74,1% inter:60,6%
[info]: coded y,uvDC,uvAC intra: 73,2% 54,0% 26,2% inter: 23,3% 10,1% 0,6%
[info]: i16 v,h,dc,p: 58% 11% 8% 23%
[info]: i8 v,h,dc,ddl,ddr,vr,hd,vl,hu: 10% 8% 9% 9% 13% 13% 13% 12% 13%
[info]: i4 v,h,dc,ddl,ddr,vr,hd,vl,hu: 10% 7% 7% 10% 14% 13% 13% 11% 14%
[info]: i8c dc,h,v,p: 45% 26% 19% 10%
[info]: Weighted P-Frames: Y:3,4% UV:2,3%
[info]: ref P L0: 47,5% 8,5% 20,6% 6,3% 5,6% 3,7% 3,6% 1,9% 2,0% 0,3% 0,0%
[info]: ref B L0: 81,4% 9,7% 3,7% 1,8% 1,2% 1,1% 0,8% 0,3%
[info]: ref B L1: 95,3% 4,7%
[info]: SSIM Mean Y:0,9842331 (18,023db)
[info]: PSNR Mean Y:45,799 U:52,281 V:53,182 Avg:47,103 Global:46,482 kb/s:3889,82
Скріншоти:
Original vs Encode




Шерлок Холмс: Гра тіней / Sherlock Holmes: A Game of Shadows (2011) 720p Ukr/Eng | Sub 2xUkr/Eng:

Шерлок Холмс: Гра тіней / Sherlock Holmes: A Game of Shadows (2011) 720p Ukr/Eng | Sub 2xUkr/Eng

Шерлок Холмс: Дилогія / Sherlock Holmes: Dilogy (2009-2011) 720p Ukr/Eng | Sub Ukr/Eng




Актори: Роберт Дауні Молодший, Джуд Лоу, Нумі Рапейс, Рейчел МакАдамс, Марк Стронг, Джаред Харріс

Сюжет:
Шерлок Холмс (Роберт Дауні, мол.) і його давній помічник Доктор Ватсон (Джуд Лоу) намагаються перехитрити і подолати свого найпідступнішого противника - професора Моріарті (Джаред Харріс) - за допомогою старшого брата Холмса Майкрофта Холмса (Стівен Фрай) і циганки на ім'я Сім (Нумі Рапас).

Коли кронпринц Австрії був знайдений мертвим, всі докази, на думку інспектора Лестрейда (Едді Марсан), вказували на самогубство. Проте Шерлок Холмс приходить до висновку, що спадкоємець престолу був убитий, і це вбивство — лише маленький шматочок набагато грандіознішої і зловіснішої мозаїки, створеної професором Моріарті. Повне небезпек розслідування веде Холмса, Ватсона і їх випадкову супутницю циганку Сім по всій Європі, з Англії до Франції, потім до Німеччини і, нарешті, до Швейцарії. Але підступний Моріарті завжди на крок попереду, він плете павутину із смерті і руйнувань, що є частиною його великого плану, успіх якого змінить хід історії.


Тривалість: 02:08:44
Якість:
Відео:
кодек:
розмір кадру: 1280 х 534
бітрейт: 3887 кб/с

Аудіо # 1:
мова: українська
переклад: професійний дубльований
кодек: 5.1
бітрейт: 448 кб/с

Аудіо # 2:
мова: англійська
переклад: оригінал
кодек: 5.1
бітрейт: 384 кб/с

Субтитри # 1:
мова: українська (Full)
тип: програмні(м’які)
формат: *.srt

Субтитри # 2:
мова: українська (Forced) [на французьку мову]
тип: програмні(м’які)
формат: *.srt

Субтитри # 3:
мова: англійська (SDH)
тип: пререндерні
формат: *.pgs
MediaInfo:

File size : 4.25 GiB
Duration : 2h 8mn
Overall bit rate : 4 728 Kbps
Encoded date : UTC 2012-05-19 20:34:05
Writing application : mkvmerge v5.5.0 ('Healer') built on Apr 7 2012 12:04:29
Writing library : libebml v1.2.2 + libmatroska v1.3.0

Video
ID : 1
Format : AVC
Format/Info : Advanced Video Codec
Format profile : [email protected]
Format settings, CABAC : Yes
Format settings, ReFrames : 9 frames
Codec ID : V_MPEG4/ISO/AVC
Duration : 2h 8mn
Bit rate : 3 887 Kbps
Width : 1 280 pixels
Height : 534 pixels
Display aspect ratio : 2.40:1
Frame rate mode : Variable
Frame rate : 23.976 fps
Color space : YUV
Chroma subsampling : 4:2:0
Bit depth : 8 bits
Scan type : Progressive
Bits/(Pixel*Frame) : 0.237
Stream size : 3.42 GiB (80%)
Title : For Hurtom by Zeus62
Writing library : core 112
Encoding settings : cabac=1 / ref=9 / deblock=1:-3:-3 / analyse=0x3:0x113 / me=umh / subme=10 / psy=1 / psy_rd=1,00:0,00 / mixed_ref=1 / me_range=64 / chroma_me=1 / trellis=2 / 8x8dct=1 / cqm=0 / deadzone=21,11 / fast_pskip=1 / chroma_qp_offset=-2 / threads=9 / sliced_threads=0 / nr=0 / decimate=1 / interlaced=0 / constrained_intra=0 / bframes=9 / b_pyramid=2 / b_adapt=2 / b_bias=0 / direct=1 / weightb=1 / open_gop=0 / weightp=2 / keyint=240 / keyint_min=23 / scenecut=40 / intra_refresh=0 / rc_lookahead=50 / rc=2pass / mbtree=1 / bitrate=3887 / ratetol=1,0 / qcomp=0,60 / qpmin=3 / qpmax=51 / qpstep=4 / cplxblur=20,0 / qblur=0,5 / ip_ratio=1,40 / aq=1:1,00
Language : Ukrainian
Default : Yes
Forced : No
Color primaries : BT.709-5, BT.1361, IEC 61966-2-4, SMPTE RP177
Transfer characteristics : BT.709-5, BT.1361
Matrix coefficients : BT.709-5, BT.1361, IEC 61966-2-4 709, SMPTE RP177

Audio #1
ID : 2
Format : AC-3
Format/Info : Audio Coding 3
Mode extension : CM (complete main)
Format settings, Endianness : Big
Codec ID : A_AC3
Duration : 2h 8mn
Bit rate mode : Constant
Bit rate : 448 Kbps
Channel(s) : 6 channels
Channel positions : Front: L C R, Side: L R, LFE
Sampling rate : 48.0 KHz
Bit depth : 16 bits
Compression mode : Lossy
Stream size : 413 MiB (9%)
Language : Ukrainian
Default : Yes
Forced : No

Audio #2
ID : 3
Format : AC-3
Format/Info : Audio Coding 3
Mode extension : CM (complete main)
Format settings, Endianness : Big
Codec ID : A_AC3
Duration : 2h 8mn
Bit rate mode : Constant
Bit rate : 384 Kbps
Channel(s) : 6 channels
Channel positions : Front: L C R, Side: L R, LFE
Sampling rate : 48.0 KHz
Bit depth : 16 bits
Compression mode : Lossy
Stream size : 354 MiB (8%)
Language : English
Default : No
Forced : No

Text #1
ID : 4
Format : UTF-8
Codec ID : S_TEXT/UTF8
Codec ID/Info : UTF-8 Plain Text
Title : Full
Language : Ukrainian
Default : No
Forced : No

Text #2
ID : 5
Format : UTF-8
Codec ID : S_TEXT/UTF8
Codec ID/Info : UTF-8 Plain Text
Title : Forced
Language : Ukrainian
Default : Yes
Forced : No

Text #3
ID : 6
Format : PGS
Muxing mode : zlib
Codec ID : S_HDMV/PGS
Codec ID/Info : The same subtitle format used on BDs/HD-DVDs
Title : SDH
Language : English
Default : No
Forced : No
log:

[info]: frame I:1879 Avg QP:14,22 size:117371 PSNR Mean Y:48,55 U:51,18 V:52,07 Avg:49,33 Global:49,07
[info]: frame P:41730 Avg QP:17,90 size: 39060 PSNR Mean Y:45,84 U:49,93 V:50,86 Avg:46,86 Global:46,37
[info]: frame B:141598 Avg QP:20,55 size: 13425 PSNR Mean Y:44,13 U:49,42 V:50,56 Avg:45,33 Global:45,07
[info]: consecutive B-frames: 1,7% 3,6% 6,5% 27,6% 18,8% 26,7% 7,3% 6,5% 1,1% 0,3%
[info]: mb I I16..4: 4,1% 78,1% 17,8%
[info]: mb P I16..4: 0,9% 11,2% 1,2% P16..4: 35,7% 28,7% 15,4% 0,0% 0,0% skip: 6,8%
[info]: mb B I16..4: 0,0% 1,1% 0,1% B16..8: 43,0% 13,3% 3,8% direct: 6,2% skip:32,5% L0:44,2% L1:46,2% BI: 9,6%
[info]: 8x8 transform intra:83,6% inter:61,9%
[info]: coded y,uvDC,uvAC intra: 90,7% 76,6% 49,1% inter: 32,0% 15,2% 1,8%
[info]: i16 v,h,dc,p: 35% 13% 11% 41%
[info]: i8 v,h,dc,ddl,ddr,vr,hd,vl,hu: 13% 8% 6% 10% 14% 13% 13% 11% 12%
[info]: i4 v,h,dc,ddl,ddr,vr,hd,vl,hu: 14% 7% 4% 10% 15% 14% 13% 11% 12%
[info]: i8c dc,h,v,p: 43% 22% 19% 15%
[info]: Weighted P-Frames: Y:4,3% UV:2,6%
[info]: ref P L0: 45,6% 9,1% 18,7% 7,1% 6,3% 4,4% 4,0% 2,3% 2,3% 0,3% 0,0%
[info]: ref B L0: 73,4% 12,1% 5,9% 3,0% 2,4% 1,8% 1,0% 0,4%
[info]: ref B L1: 92,7% 7,3%
[info]: SSIM Mean Y:0,9771687 (16,415db)
[info]: PSNR Mean Y:44,560 U:49,556 V:50,642 Avg:45,718 Global:45,355 kb/s:3885,09
Скріншоти:
Original vs Encode




Джерело: Власний ріп +
Подяка Gelios - за постер, braveboy - за українські субтитри.
Особиста оцінка: 10 - без зайвих вагань рекомендую всім!


Бронзовий реліз (на рейтинг впливає 75% завантаженого)
 Трекер:    Зареєстрований   

Завантажити / скачати фільм українською



відео для новачків



 Зареєстрований:   2012-05-20 11:57
 Розмір:   8.5 GB 
 Оцінка фільму:   9.5/10 (Голосів: 53)
   
braveboy 
Відео Гуртом - команда HD
Відео Гуртом - команда HD


З нами з: 15.06.10
Востаннє: 29.10.16
Повідомлень: 958

2012-05-20 07:35  
Zeus62
ось (Forced) [на французьку мову] до першої частини

Zeus62 
Відео Гуртом - команда HD
Відео Гуртом - команда HD


З нами з: 29.12.08
Востаннє: 16.11.16
Повідомлень: 330

2012-05-20 09:56  
Цитата:
ось (Forced) [на французьку мову] до першої частини

Дякую.

bot 
робот


З нами з: 30.09.07
Востаннє: 26.05.05
Повідомлень: 16050

2012-05-20 11:56  
Тему перенесено з Анонси релізів від Відео Гуртом до форуму Фільми в HD


Zeus62

Гривник 
Частий відвідувач


З нами з: 21.02.12
Востаннє: 05.12.12
Повідомлень: 31

2012-10-09 00:17  
народ у мене одного відстає картинка від звуку???
taras1994 
Почесний оцифрувальник літератури


З нами з: 23.03.12
Востаннє: 30.11.16
Повідомлень: 5096

2012-10-09 08:55  
Гривник написано:
народ у мене одного відстає картинка від звуку???

я фільм ще не дивився, але якщо в тебе відстає картинка:
1. попробуй kmp player
2. попробуй потужніший комп'ютер
3. попробуй фільм з розділу озвучені українською.

Успіху

Я є тут 
Свій


З нами з: 30.08.12
Востаннє: 09.12.16
Повідомлень: 101

2013-09-27 21:52  
Народ, станьте, будь ласка, на роздачу!
kino. 
Модератор відео


З нами з: 27.06.10
Востаннє: 10.12.16
Повідомлень: 2900

2013-09-28 07:08  
Я є тут написано:
Народ, станьте, будь ласка, на роздачу!


Ваш рейтинг опустився нижче 0,15. Коли він підніметься до цього рівня, ви знову зможете завантажувати торрент-файли. Почитайте ЦЕ.

Nachtigall14 
Новенький


З нами з: 08.02.12
Востаннє: 04.11.13
Повідомлень: 2

2013-10-18 19:47  
Подякував
Ваш часовий пояс: GMT + 2 Години

Нова тема   Відповісти