Завантажити та скачати торренти українською


Драйв / Drive (2011) 1080p Ukr/Eng | Sub Eng

Нові коментарі

Нова тема   Відповісти
Автор Повідомлення
LiquidatorFX 
Свій


З нами з: 01.12.11
Востаннє: 11.05.16
Повідомлень: 100

2012-05-19 05:50  
Драйв / Drive (2011) 1080p Ukr/Eng | Sub Eng

Драйв / Drive (2011) 1080p Ukr/Eng | Sub Eng


Жанр: трилер, драма
Країна: США



Кіностудія / кінокомпанія: Bold Films, Odd Lot Entertainment, Marc Platt Productions
Режисер: Ніколас Віндінг Рефн (Nicolas Winding Refn)
Актори: Райан Гослінг (Ryan Gosling), Кері Маліган (Carey Mulligan), Брайан Кренстон (Bryan Cranston) та інші

Сюжет:
Чудовий гонщик - вдень він виконує каскадерські трюки на знімальних майданчиках Голлівуду, а вночі веде ризиковану гру. Але один небезпечний контракт - і за його життя призначена нагорода. Тепер, щоб залишитися живим і врятувати свою чарівну сусідку, він повинен робити те, що вміє найкраще - віртуозно втікати від переслідування...


Тривалість: 01:40:24
Якість: 1080p | Piп з Drive 2011 1080p Blu-ray AVC -HD MA 5.1-HDChina
Відео:
кодек:
розмір кадру: 1920 x 804
бітрейт: 8845 кб/с

Аудіо # 1:
мова: українська
переклад: багатоголосий закадровий
кодек: 5.1
бітрейт: 448 кб/с

Аудіо # 2:
мова: англійська
переклад: оригінал
кодек: 5.1
бітрейт: 640 кб/с

Джерело озвучення:
ТО "Цікава ідея" на замовлення Hurtom.com

Субтитри:
мова: англійська (SDH), англійська (full)
тип: програмні (м'які)
формат: *.srt
MediaInfo
General
Unique ID : 207422284735299490695445636432842474287 (0x9C0C1434C9ED8DF7AC08FF253048432F)
Complete name : Drive.2011.1080p.BluRay.Ukr.Eng.mkv
Format : Matroska
Format version : Version 2
File size : 7.10 GiB
Duration : 1h 40mn
Overall bit rate : 10.1 Mbps
Movie name : Drive (2011) - Release for Hurtom
Encoded date : UTC 2012-05-19 02:56:05
Writing application : mkvmerge v5.5.0 ('Healer') built on Apr 24 2012 23:47:03
Writing library : libebml v1.2.3 + libmatroska v1.3.0

Video
ID : 1
Format : AVC
Format/Info : Advanced Video Codec
Format profile : [email protected]
Format settings, CABAC : Yes
Format settings, ReFrames : 5 frames
Codec ID : V_MPEG4/ISO/AVC
Duration : 1h 40mn
Bit rate : 8 836 Kbps
Width : 1 920 pixels
Height : 804 pixels
Display aspect ratio : 2.40:1
Frame rate : 23.976 fps
Color space : YUV
Chroma subsampling : 4:2:0
Bit depth : 8 bits
Scan type : Progressive
Bits/(Pixel*Frame) : 0.239
Stream size : 6.20 GiB (87%)
Title : Release for Hutom
Writing library : core 120 r2120 0c7dab9
Encoding settings : cabac=1 / ref=5 / deblock=1:-3:-3 / analyse=0x3:0x133 / me=umh / subme=10 / psy=1 / psy_rd=1.05:0.05 / mixed_ref=1 / me_range=24 / chroma_me=1 / trellis=2 / 8x8dct=1 / cqm=0 / deadzone=21,11 / fast_pskip=0 / chroma_qp_offset=-3 / threads=12 / sliced_threads=0 / nr=0 / decimate=0 / interlaced=0 / bluray_compat=0 / constrained_intra=0 / bframes=7 / b_pyramid=2 / b_adapt=2 / b_bias=0 / direct=3 / weightb=1 / open_gop=0 / weightp=2 / keyint=250 / keyint_min=23 / scenecut=40 / intra_refresh=0 / rc_lookahead=150 / rc=crf / mbtree=1 / crf=16.0 / qcomp=0.60 / qpmin=0 / qpmax=69 / qpstep=4 / ip_ratio=1.40 / aq=1:0.85
Language : English
Default : Yes
Forced : No

Audio #1
ID : 2
Format : AC-3
Format/Info : Audio Coding 3
Mode extension : CM (complete main)
Codec ID : A_AC3
Duration : 1h 40mn
Bit rate mode : Constant
Bit rate : 448 Kbps
Channel(s) : 6 channels
Channel positions : Front: L C R, Side: L R, LFE
Sampling rate : 48.0 KHz
Bit depth : 16 bits
Compression mode : Lossy
Stream size : 322 MiB (4%)
Title : 5.1 @ 448 kbps - Украинский многоголосный закадровый HUrtom
Language : Ukrainian
Default : Yes
Forced : No

Audio #2
ID : 3
Format : AC-3
Format/Info : Audio Coding 3
Mode extension : CM (complete main)
Codec ID : A_AC3
Duration : 1h 40mn
Bit rate mode : Constant
Bit rate : 640 Kbps
Channel(s) : 6 channels
Channel positions : Front: L C R, Side: L R, LFE
Sampling rate : 48.0 KHz
Bit depth : 16 bits
Compression mode : Lossy
Stream size : 460 MiB (6%)
Title : 5.1 @ 640 kbps - Оригинал
Language : English
Default : No
Forced : No

Text #1
ID : 4
Format : UTF-8
Codec ID : S_TEXT/UTF8
Codec ID/Info : UTF-8 Plain Text
Title : Full
Language : English
Default : No
Forced : No

Text #2
ID : 5
Format : UTF-8
Codec ID : S_TEXT/UTF8
Codec ID/Info : UTF-8 Plain Text
Title : SDH
Language : English
Default : No
Forced : No

Menu
00:00:00.000 : en:00:00:00.000
00:10:32.715 : en:00:10:32.715
00:15:02.443 : en:00:15:02.443
00:19:55.111 : en:00:19:55.111
00:23:23.444 : en:00:23:23.444
00:30:40.338 : en:00:30:40.338
00:35:07.439 : en:00:35:07.439
00:39:23.444 : en:00:39:23.444
00:45:41.155 : en:00:45:41.155
00:50:42.581 : en:00:50:42.581
00:55:47.427 : en:00:55:47.427
01:02:27.744 : en:01:02:27.744
01:07:39.722 : en:01:07:39.722
01:13:22.481 : en:01:13:22.481
01:18:30.456 : en:01:18:30.456
01:28:53.578 : en:01:28:53.578
Скріншоти


Джерело: &
Особиста оцінка: 10 - без зайвих вагань рекомендую всім!


Авторський реліз (завантажувати можна без реєстрації)
 Трекер:    Зареєстрований   

Завантажити / скачати фільм українською



відео для новачків



 Зареєстрований:   2012-05-19 05:50
 Розмір:   7.1 GB 
 Оцінка фільму:   8.6/10 (Голосів: 28)
   
Інші релізи
   Драйв / Drive (2011) 2xUkr/Eng AngryBirdsUA  3 / 0   2.19 GB   2013-12-06 19:07 
   Драйв / Drive (2011) 720p Ukr/Eng | Sub Eng LiquidatorFX  3 / 0   4.68 GB   2012-05-19 05:44 
   Драйв / Drive (2011) AVC LiquidatorFX  1 / 0   1.46 GB   2012-05-19 05:24 
   Драйв / Drive (2011) 720p-mini Ukr/Eng Anonymous  4 / 0   2.49 GB   2012-05-19 02:31 
ratbol 
Модератор HD


З нами з: 03.02.09
Востаннє: 05.12.16
Повідомлень: 1088

2012-05-19 10:23  
LiquidatorFX написано:
Украинский многоголосный закадровый HUrtom

Лінґва трошки не підходить.
Чи буде укр ? І чому оригінал в долбі?
Чому немає металу?

smak2001 
VIP


З нами з: 06.09.09
Востаннє: 06.12.16
Повідомлень: 457

2012-05-19 11:10  
ratbol написано:
Чому немає металу?

напевне буде інший реліз з
ratbol написано:
укр

тоді і дадуть щось

LiquidatorFX 
Свій


З нами з: 01.12.11
Востаннє: 11.05.16
Повідомлень: 100

2012-05-19 13:45  
ratbol, smak2001

Тут появився тiльки 5.1, тому такий i прикручено

igor911 
Відео Гуртом
Відео Гуртом


З нами з: 18.01.08
Востаннє: 06.12.16
Повідомлень: 5155

2012-05-21 20:38  
LiquidatorFX, викладіть будь ласка укр. доріжку на 01:40:24 окремо. Вже маю 1080р ріп з такою тривалістю, не хотілося б перекачувати все, інтернет досить повільний...Наперед дякую.
leroykendall 
Модератор HD


З нами з: 03.01.11
Востаннє: 20.11.16
Повідомлень: 749

2012-06-16 23:36  
LiquidatorFX написано:
Украинский многоголосный закадровый HUrtom

Вам усне попередження. Слідкуйте за тим що ви пишете в МедіаІнфо.

taras1994 
Почесний оцифрувальник літератури


З нами з: 23.03.12
Востаннє: 30.11.16
Повідомлень: 5096

2012-06-18 12:24  
leroykendall написано:
Вам усне попередження. Слідкуйте за тим що ви пишете в МедіаІнфо.

http://toloka.to/t25423
Тут мова озвучення українська та російська, в смітник тему.
і тут
http://toloka.to/t24328
http://toloka.to/t28413
http://toloka.to/t27435
http://toloka.to/t30870
http://toloka.to/t30580
http://toloka.to/t22992
http://toloka.to/t4873

Видаліть розділ Тб, там одна туфта, якщо не рахувати топ гір.

sergiysergiy 
Частий відвідувач


З нами з: 17.04.10
Востаннє: 06.12.16
Повідомлень: 30

2013-05-26 09:17  
Ну і фільмець.... Такі по телевізору однозначно показувати не можна!!! Нормальній людині психіку порушить а ненормальній розбурхає уяву. Ще раз показується що людина може бути найгіршою істотою на землі і тільки людей найбільше треба боятися.
ukropVadim 
Новенький


З нами з: 19.01.15
Востаннє: 04.12.16
Повідомлень: 9

2015-01-19 15:28  
Неймовірний фільм,один з моїх улюблених,чудовий сценарій і акторська гра Раяна Гослінга,цей фільм реально поглинає своєю крутістю,рекомендую до перегляду !)
pop_v_trysah 
Поважний учасник


З нами з: 16.01.09
Востаннє: 03.12.16
Повідомлень: 237

2015-08-26 10:15  
ukropVadim
+1

serio321 
Localize Team
Localize Team


З нами з: 10.02.12
Востаннє: 06.12.16
Повідомлень: 26

2016-08-15 02:58  
sergiysergiy
що там такого шокуючого?

Ваш часовий пояс: GMT + 2 Години

Нова тема   Відповісти