Завантажити та скачати торренти українською


Драйв / Drive (2011) 720p Ukr/Eng | Sub Eng

Нові коментарі

Нова тема   Відповісти
Автор Повідомлення
LiquidatorFX 
Свій


З нами з: 01.12.11
Востаннє: 11.05.16
Повідомлень: 100

2012-05-19 05:44  
Драйв / Drive (2011) 720p Ukr/Eng | Sub Eng

Драйв / Drive (2011) 720p Ukr/Eng | Sub Eng


Жанр: трилер, драма
Країна: США



Кіностудія / кінокомпанія: Bold Films, Odd Lot Entertainment, Marc Platt Productions
Режисер: Ніколас Віндінг Рефн (Nicolas Winding Refn)
Актори: Райан Гослінг (Ryan Gosling), Кері Маліган (Carey Mulligan), Брайан Кренстон (Bryan Cranston) та інші

Сюжет:
Чудовий гонщик - вдень він виконує каскадерські трюки на знімальних майданчиках Голлівуду, а вночі веде ризиковану гру. Але один небезпечний контракт - і за його життя призначена нагорода. Тепер, щоб залишитися живим і врятувати свою чарівну сусідку, він повинен робити те, що вміє найкраще - віртуозно втікати від переслідування...


Тривалість: 01:40:24
Якість: 720p | Piп з Drive 2011 1080p Blu-ray AVC -HD MA 5.1-HDChina
Відео:
кодек:
розмір кадру: 1280 x 536
бітрейт: 5590 кб/с

Аудіо # 1:
мова: українська
переклад: багатоголосий закадровий
кодек: 5.1
бітрейт: 448 кб/с

Аудіо # 2:
мова: англійська
переклад: оригінал
кодек: 5.1
бітрейт: 640 кб/с

Джерело озвучення:
ТО "Цікава ідея" на замовлення Hurtom.com

Субтитри:
мова: англійська (SDH), англійська (full)
тип: програмні (м'які)
формат: *.srt
MediaInfo
General
Unique ID : 231666715875939576351035240186661246104 (0xAE4962F320A7EB89836688CA04DF1498)
Complete name : Drive.2011.720p.BluRay.Ukr.Eng.mkv
Format : Matroska
Format version : Version 2
File size : 4.68 GiB
Duration : 1h 40mn
Overall bit rate : 6 678 Kbps
Movie name : Drive (2011) - Release for Hurtom
Encoded date : UTC 2012-05-19 02:50:40
Writing application : mkvmerge v5.5.0 ('Healer') built on Apr 24 2012 23:47:03
Writing library : libebml v1.2.3 + libmatroska v1.3.0

Video
ID : 1
Format : AVC
Format/Info : Advanced Video Codec
Format profile : [email protected]
Format settings, CABAC : Yes
Format settings, ReFrames : 12 frames
Codec ID : V_MPEG4/ISO/AVC
Duration : 1h 40mn
Bit rate : 5 590 Kbps
Width : 1 280 pixels
Height : 536 pixels
Display aspect ratio : 2.40:1
Frame rate : 23.976 fps
Color space : YUV
Chroma subsampling : 4:2:0
Bit depth : 8 bits
Scan type : Progressive
Bits/(Pixel*Frame) : 0.340
Stream size : 3.83 GiB (82%)
Title : Release for Hurtom
Writing library : core 120 r2120 0c7dab9
Encoding settings : cabac=1 / ref=12 / deblock=1:-3:-3 / analyse=0x3:0x133 / me=tesa / subme=10 / psy=1 / psy_rd=1.05:0.05 / mixed_ref=1 / me_range=24 / chroma_me=1 / trellis=2 / 8x8dct=1 / cqm=0 / deadzone=21,11 / fast_pskip=0 / chroma_qp_offset=-3 / threads=12 / sliced_threads=0 / nr=0 / decimate=0 / interlaced=0 / bluray_compat=0 / constrained_intra=0 / bframes=7 / b_pyramid=2 / b_adapt=2 / b_bias=0 / direct=3 / weightb=1 / open_gop=0 / weightp=2 / keyint=250 / keyint_min=23 / scenecut=40 / intra_refresh=0 / rc_lookahead=150 / rc=2pass / mbtree=1 / bitrate=5590 / ratetol=1.0 / qcomp=0.60 / qpmin=0 / qpmax=69 / qpstep=4 / cplxblur=20.0 / qblur=0.5 / ip_ratio=1.40 / aq=1:1.00
Language : English
Default : Yes
Forced : No

Audio #1
ID : 2
Format : AC-3
Format/Info : Audio Coding 3
Mode extension : CM (complete main)
Codec ID : A_AC3
Duration : 1h 40mn
Bit rate mode : Constant
Bit rate : 448 Kbps
Channel(s) : 6 channels
Channel positions : Front: L C R, Side: L R, LFE
Sampling rate : 48.0 KHz
Bit depth : 16 bits
Compression mode : Lossy
Stream size : 322 MiB (7%)
Title : 5.1 @ 448 kbps - Украинский многоголосный закадровый Hurtom
Language : Ukrainian
Default : Yes
Forced : No

Audio #2
ID : 3
Format : AC-3
Format/Info : Audio Coding 3
Mode extension : CM (complete main)
Codec ID : A_AC3
Duration : 1h 40mn
Bit rate mode : Constant
Bit rate : 640 Kbps
Channel(s) : 6 channels
Channel positions : Front: L C R, Side: L R, LFE
Sampling rate : 48.0 KHz
Bit depth : 16 bits
Compression mode : Lossy
Stream size : 460 MiB (10%)
Title : 5.1 @ 640 kbps - Оригинал
Language : English
Default : No
Forced : No

Text #1
ID : 4
Format : UTF-8
Codec ID : S_TEXT/UTF8
Codec ID/Info : UTF-8 Plain Text
Title : Full
Language : English
Default : No
Forced : No

Text #2
ID : 5
Format : UTF-8
Codec ID : S_TEXT/UTF8
Codec ID/Info : UTF-8 Plain Text
Title : SDH
Language : English
Default : No
Forced : No

Menu
00:00:00.000 : en:00:00:00.000
00:10:32.715 : en:00:10:32.715
00:15:02.443 : en:00:15:02.443
00:19:55.111 : en:00:19:55.111
00:23:23.444 : en:00:23:23.444
00:30:40.338 : en:00:30:40.338
00:35:07.439 : en:00:35:07.439
00:39:23.444 : en:00:39:23.444
00:45:41.155 : en:00:45:41.155
00:50:42.581 : en:00:50:42.581
00:55:47.427 : en:00:55:47.427
01:02:27.744 : en:01:02:27.744
01:07:39.722 : en:01:07:39.722
01:13:22.481 : en:01:13:22.481
01:18:30.456 : en:01:18:30.456
01:28:53.578 : en:01:28:53.578
Скріншоти


Джерело: &
Особиста оцінка: 10 - без зайвих вагань рекомендую всім!


Авторський реліз (завантажувати можна без реєстрації)
 Трекер:    Зареєстрований   

Завантажити / скачати фільм українською



відео для новачків



 Зареєстрований:   2012-05-19 05:44
 Розмір:   4.68 GB 
 Оцінка фільму:   9.1/10 (Голосів: 22)
   
Інші релізи
   Драйв / Drive (2011) 2xUkr/Eng AngryBirdsUA  3 / 0   2.19 GB   2013-12-06 19:07 
   Драйв / Drive (2011) 1080p Ukr/Eng | Sub Eng LiquidatorFX  6 / 0   7.1 GB   2012-05-19 05:50 
   Драйв / Drive (2011) AVC LiquidatorFX  2 / 0   1.46 GB   2012-05-19 05:24 
   Драйв / Drive (2011) 720p-mini Ukr/Eng Anonymous  3 / 0   2.49 GB   2012-05-19 02:31 
bilenkuyboy 
Відео Гуртом - дизайнер
Відео Гуртом - дизайнер


З нами з: 17.06.08
Востаннє: 09.12.16
Повідомлень: 1582

2012-05-19 09:19  
Український постер:
Постер
Код:
[url=http://posters.hurtom.com/albums/movies/draiv.jpg][img]http://posters.hurtom.com/cache/movies/draiv_550.jpg[/img][/url]

Konfucius 
Управління
Управління


З нами з: 30.09.07
Востаннє: 10.12.16
Повідомлень: 4748

2012-05-19 10:13  
Цікаво, скільки тривало кодування.
pop_v_trysah 
Поважний учасник


З нами з: 16.01.09
Востаннє: 03.12.16
Повідомлень: 237

2012-05-19 11:08  
нарешті дочекався)
всім Дякую за даний реліз.

Zeus62 
Відео Гуртом - команда HD
Відео Гуртом - команда HD


З нами з: 29.12.08
Востаннє: 16.11.16
Повідомлень: 330

2012-05-19 11:43  
Дякую за якісний реліз.
Цитата:
Цікаво, скільки тривало кодування.

Все ж залежить від потужності ПК. В мене відео з такими налаштуваннями якості кодувалося б не більше 8 годин.

LiquidatorFX 
Свій


З нами з: 01.12.11
Востаннє: 11.05.16
Повідомлень: 100

2012-05-19 13:50  
bilenkuyboy

Biн не з блюра Sad (2) Залишу з блюра постер

Додано через 2 хвилини 6 секунд:

Konfucius

Такий якiсний вiдеряд вiд команди DON, який взято с ХДклабу...

braveboy 
Відео Гуртом - команда HD
Відео Гуртом - команда HD


З нами з: 15.06.10
Востаннє: 29.10.16
Повідомлень: 958

2012-05-20 01:47  
Zeus62 написано:
Все ж залежить від потужності ПК. В мене відео з такими налаштуваннями якості кодувалося б не більше 8 годин.

а точніше від потужності процесора

Zeus62 
Відео Гуртом - команда HD
Відео Гуртом - команда HD


З нами з: 29.12.08
Востаннє: 16.11.16
Повідомлень: 330

2012-05-24 23:08  
Цитата:
а точніше від потужності процесора

Не тільки. Відеокарта теж приймає участь у кодуванні.

braveboy 
Відео Гуртом - команда HD
Відео Гуртом - команда HD


З нами з: 15.06.10
Востаннє: 29.10.16
Повідомлень: 958

2012-05-25 00:15  
Zeus62 написано:
Не тільки. Відеокарта теж приймає участь у кодуванні.

основну роль відіграє процесор

Ваш часовий пояс: GMT + 2 Години

Нова тема   Відповісти