Завантажити та скачати торренти українською


Форсаж. Пенталогія / The Fast and the Furious. Pentalogy (2001-2011) 720p Ukr/Eng | Sub Eng

Нові коментарі

Нова тема   Відповісти
Автор Повідомлення
Zeus62 
Відео Гуртом - команда HD
Відео Гуртом - команда HD


З нами з: 29.12.08
Востаннє: 16.11.16
Повідомлень: 330

2012-05-18 22:51  
Форсаж. Пенталогія / The Fast and the Furious. Pentalogy (2001-2011) 720p Ukr/Eng | Sub Eng

Форсаж. Пенталогія / The Fast and the Furious. Pentalogy (2001-2011) 720p Ukr/Eng | Sub Eng


Жанр: бойовик, кримінальний, драма, трилер
Країна: США, Німеччина
Форсаж / The Fast and the Furious (2001) 720p 2xUkr/Eng | Sub Eng:

Форсаж / The Fast and the Furious (2001) 720p 2xUkr/Eng | Sub Eng





Кіностудія / кінокомпанія: Mediastream Film GmbH & Co. Productions KG, Original Film, Universal Pictures
Режисер: Роб Коен
Актори: Він Дизель, Пол Вокер, Мішель Родригез, Джордана Брюстер, Рік Юн, Чед Ліндберг, Джонні Стронг, Метт Шульце, Джа Рул, Тед Лівайн, Том Баррі, Віто Ругініс

Сюжет:
Жорстокі вуличні молодіжні угруповання Лос-Анжелесу знайшли новий спосіб зясовувати стосунки і ділити територію. Замість замовних вбивств - убивчі перегони на найдсучасних автомобілях з потужними двигунами, на шалених швидкостях, коли лише тонка адреналінова межа відділяє життя на колесах від смерті у бензиновому вогнищі Молодий поліцейський під прикриттям впроваджується в одну з банд і стає таким самим вуличним гонщиком, аби завоювати довіру злочинців і пролити світло на серію таємничих та нахабних викрадень вантажівок з цінними вантажами. Крізь підозри та брехню він вперто рухається до мети ...на повному форсажі!


Тривалість: 01:46:50
Якість:
Відео:
кодек:
розмір кадру: 1280 x 544
бітрейт: 5049 кб/с

Аудіо # 1:
мова: українська
переклад: багатоголосий закадровий | Так Треба Продакшн |
кодек: 5.1
бітрейт: 448 кб/с

Аудіо # 2:
мова: українська
переклад: багатоголосий закадровий | ТВ+ |
кодек: 5.1
бітрейт: 448 кб/с

Аудіо # 3:
мова: англійська
переклад: оригінал
кодек: 5.1
бітрейт: 384 кб/с

Субтитри # 1:
мова: англійська (SDH)
тип: пререндерні
формат: *.pgs
MediaInfo:
File size : 4.73 GiB
Duration : 1h 46mn
Overall bit rate : 6 339 Kbps
Encoded date : UTC 2012-05-17 07:38:46
Writing application : mkvmerge v5.5.0 ('Healer') built on Apr 7 2012 12:04:29
Writing library : libebml v1.2.2 + libmatroska v1.3.0

Video
ID : 1
Format : AVC
Format/Info : Advanced Video Codec
Format profile : [email protected]
Format settings, CABAC : Yes
Format settings, ReFrames : 9 frames
Codec ID : V_MPEG4/ISO/AVC
Duration : 1h 46mn
Bit rate : 5 049 Kbps
Width : 1 280 pixels
Height : 544 pixels
Display aspect ratio : 2.35:1
Frame rate mode : Variable
Frame rate : 23.976 fps
Color space : YUV
Chroma subsampling : 4:2:0
Bit depth : 8 bits
Scan type : Progressive
Bits/(Pixel*Frame) : 0.302
Stream size : 3.68 GiB (78%)
Title : For Hurtom by Zeus62
Writing library : core 112
Encoding settings : cabac=1 / ref=9 / deblock=1:-3:-3 / analyse=0x3:0x113 / me=umh / subme=10 / psy=1 / psy_rd=1,00:0,00 / mixed_ref=0 / me_range=64 / chroma_me=1 / trellis=2 / 8x8dct=1 / cqm=0 / deadzone=21,11 / fast_pskip=1 / chroma_qp_offset=-2 / threads=9 / sliced_threads=0 / nr=0 / decimate=1 / interlaced=0 / constrained_intra=0 / bframes=9 / b_pyramid=2 / b_adapt=1 / b_bias=0 / direct=1 / weightb=0 / open_gop=0 / weightp=2 / keyint=240 / keyint_min=23 / scenecut=40 / intra_refresh=0 / rc_lookahead=40 / rc=2pass / mbtree=1 / bitrate=5049 / ratetol=1,0 / qcomp=0,60 / qpmin=3 / qpmax=51 / qpstep=4 / cplxblur=20,0 / qblur=0,5 / ip_ratio=1,40 / aq=1:1,00
Language : Ukrainian
Default : Yes
Forced : No
Color primaries : BT.709-5, BT.1361, IEC 61966-2-4, SMPTE RP177
Transfer characteristics : BT.709-5, BT.1361
Matrix coefficients : BT.709-5, BT.1361, IEC 61966-2-4 709, SMPTE RP177

Audio #1
ID : 2
Format : AC-3
Format/Info : Audio Coding 3
Mode extension : CM (complete main)
Format settings, Endianness : Big
Codec ID : A_AC3
Duration : 1h 46mn
Bit rate mode : Constant
Bit rate : 448 Kbps
Channel(s) : 6 channels
Channel positions : Front: L C R, Side: L R, LFE
Sampling rate : 48.0 KHz
Bit depth : 16 bits
Compression mode : Lossy
Stream size : 342 MiB (7%)
Title : ukr "Так Треба Продакшн"
Default : Yes
Forced : No

Audio #2
ID : 3
Format : AC-3
Format/Info : Audio Coding 3
Mode extension : CM (complete main)
Format settings, Endianness : Big
Codec ID : A_AC3
Duration : 1h 46mn
Bit rate mode : Constant
Bit rate : 448 Kbps
Channel(s) : 6 channels
Channel positions : Front: L C R, Side: L R, LFE
Sampling rate : 48.0 KHz
Bit depth : 16 bits
Compression mode : Lossy
Stream size : 342 MiB (7%)
Title : ukr "ТВ+"
Default : No
Forced : No

Audio #3
ID : 4
Format : AC-3
Format/Info : Audio Coding 3
Mode extension : CM (complete main)
Format settings, Endianness : Big
Codec ID : A_AC3
Duration : 1h 46mn
Bit rate mode : Constant
Bit rate : 384 Kbps
Channel(s) : 6 channels
Channel positions : Front: L C R, Side: L R, LFE
Sampling rate : 48.0 KHz
Bit depth : 16 bits
Compression mode : Lossy
Stream size : 293 MiB (6%)
Language : English
Default : No
Forced : No

Text
ID : 5
Format : PGS
Muxing mode : zlib
Codec ID : S_HDMV/PGS
Codec ID/Info : The same subtitle format used on BDs/HD-DVDs
Language : English
Default : No
Forced : No
log:
[info]: frame I:2932 Avg QP:16,52 size: 75484 PSNR Mean Y:47,22 U:50,57 V:51,25 Avg:48,13 Global:47,85
[info]: frame P:98212 Avg QP:19,24 size: 32087 PSNR Mean Y:44,64 U:48,94 V:49,80 Avg:45,69 Global:45,40
[info]: frame B:52566 Avg QP:21,23 size: 12814 PSNR Mean Y:43,46 U:48,74 V:49,49 Avg:44,65 Global:44,17
[info]: consecutive B-frames: 40,8% 36,0% 9,8% 9,3% 2,8% 0,4% 0,4% 0,1% 0,0% 0,4%
[info]: mb I I16..4: 6,0% 84,3% 9,6%
[info]: mb P I16..4: 1,6% 11,9% 0,9% P16..4: 56,7% 15,5% 7,9% 0,0% 0,0% skip: 5,6%
[info]: mb B I16..4: 0,1% 0,9% 0,1% B16..8: 50,5% 8,5% 2,5% direct: 6,8% skip:30,7% L0:41,0% L1:46,7% BI:12,3%
[info]: 8x8 transform intra:83,3% inter:69,7%
[info]: coded y,uvDC,uvAC intra: 87,0% 70,1% 36,4% inter: 46,7% 28,4% 2,4%
[info]: i16 v,h,dc,p: 45% 19% 8% 28%
[info]: i8 v,h,dc,ddl,ddr,vr,hd,vl,hu: 6% 8% 8% 11% 15% 13% 14% 11% 13%
[info]: i4 v,h,dc,ddl,ddr,vr,hd,vl,hu: 7% 10% 6% 10% 15% 13% 14% 11% 13%
[info]: i8c dc,h,v,p: 40% 29% 17% 15%
[info]: Weighted P-Frames: Y:2,4% UV:1,5%
[info]: ref P L0: 45,3% 6,9% 16,8% 7,9% 6,5% 4,8% 4,4% 2,9% 2,8% 1,7% 0,0%
[info]: ref B L0: 67,5% 13,1% 7,0% 4,1% 3,1% 2,7% 2,1% 0,4%
[info]: ref B L1: 94,9% 5,1%
[info]: SSIM Mean Y:0,9752489 (16,064db)
[info]: PSNR Mean Y:44,285 U:48,901 V:49,720 Avg:45,382 Global:44,971 kb/s:5049,05
Скріншоти:
Original vs Encode




Подвійний Форсаж / 2 Fast 2 Furious (2003) 720p Ukr/Eng | Sub Eng:

Подвійний Форсаж / 2 Fast 2 Furious (2003) 720p Ukr/Eng | Sub Eng





Кіностудія / кінокомпанія: Mikona Productions GmbH & Co. KG, Original Film, Universal Pictures
Режисер: Джон Синглтон
Актори: Пол Уокер, Тайріс Гібсон, Майкл Ілі, Джеймс Ремар, Девон Аокі

Сюжет:
Браян О'Коннор (Вокер) звільнився з ФБР, однак його талант гонщика та знання законів вуличних банд одного дня знадобились колишньому начальнику героя. Браяну доручили увійти в довіру до торговця наркотиками Картера Верона (Хаузер). Допомагають О?Коннору його давній приятель Роман Пірс і агент під прикриттям Моніка Фуентес...


Тривалість: 01:47:41
Якість:
Відео:
кодек:
розмір кадру: 1280 x 544
бітрейт: 5087 кб/с

Аудіо # 1:
мова: українська
переклад: багатоголосий закадровий
кодек: 5.1
бітрейт: 448 кб/с

Аудіо # 2:
мова: англійська
переклад: оригінал
кодек: 5.1
бітрейт: 384 кб/с

Субтитри # 1:
мова: англійська (SDH)
тип: пререндерні
формат: *.pgs
MediaInfo:
File size : 4.45 GiB
Duration : 1h 47mn
Overall bit rate : 5 922 Kbps
Encoded date : UTC 2012-05-18 08:15:25
Writing application : mkvmerge v5.5.0 ('Healer') built on Apr 7 2012 12:04:29
Writing library : libebml v1.2.2 + libmatroska v1.3.0

Video
ID : 1
Format : AVC
Format/Info : Advanced Video Codec
Format profile : [email protected]
Format settings, CABAC : Yes
Format settings, ReFrames : 9 frames
Codec ID : V_MPEG4/ISO/AVC
Duration : 1h 47mn
Bit rate : 5 087 Kbps
Width : 1 280 pixels
Height : 544 pixels
Display aspect ratio : 2.35:1
Frame rate mode : Variable
Frame rate : 23.976 fps
Color space : YUV
Chroma subsampling : 4:2:0
Bit depth : 8 bits
Scan type : Progressive
Bits/(Pixel*Frame) : 0.305
Stream size : 3.74 GiB (84%)
Title : For Hurtom by Zeus62
Writing library : core 112
Encoding settings : cabac=1 / ref=9 / deblock=1:-3:-3 / analyse=0x3:0x113 / me=umh / subme=10 / psy=1 / psy_rd=1,00:0,00 / mixed_ref=0 / me_range=64 / chroma_me=1 / trellis=2 / 8x8dct=1 / cqm=0 / deadzone=21,11 / fast_pskip=1 / chroma_qp_offset=-2 / threads=9 / sliced_threads=0 / nr=0 / decimate=1 / interlaced=0 / constrained_intra=0 / bframes=9 / b_pyramid=2 / b_adapt=1 / b_bias=0 / direct=1 / weightb=0 / open_gop=0 / weightp=2 / keyint=240 / keyint_min=23 / scenecut=40 / intra_refresh=0 / rc_lookahead=40 / rc=2pass / mbtree=1 / bitrate=5087 / ratetol=1,0 / qcomp=0,60 / qpmin=3 / qpmax=51 / qpstep=4 / cplxblur=20,0 / qblur=0,5 / ip_ratio=1,40 / aq=1:1,00
Language : Ukrainian
Default : Yes
Forced : No
Color primaries : BT.709-5, BT.1361, IEC 61966-2-4, SMPTE RP177
Transfer characteristics : BT.709-5, BT.1361
Matrix coefficients : BT.709-5, BT.1361, IEC 61966-2-4 709, SMPTE RP177

Audio #1
ID : 2
Format : AC-3
Format/Info : Audio Coding 3
Mode extension : CM (complete main)
Format settings, Endianness : Big
Codec ID : A_AC3
Duration : 1h 47mn
Bit rate mode : Constant
Bit rate : 448 Kbps
Channel(s) : 6 channels
Channel positions : Front: L C R, Side: L R, LFE
Sampling rate : 48.0 KHz
Bit depth : 16 bits
Compression mode : Lossy
Delay relative to video : 800ms
Stream size : 345 MiB (8%)
Language : Ukrainian
Default : Yes
Forced : No

Audio #2
ID : 3
Format : AC-3
Format/Info : Audio Coding 3
Mode extension : CM (complete main)
Format settings, Endianness : Big
Codec ID : A_AC3
Duration : 1h 47mn
Bit rate mode : Constant
Bit rate : 384 Kbps
Channel(s) : 6 channels
Channel positions : Front: L C R, Side: L R, LFE
Sampling rate : 48.0 KHz
Bit depth : 16 bits
Compression mode : Lossy
Stream size : 296 MiB (6%)
Language : English
Default : No
Forced : No

Text
ID : 4
Format : PGS
Muxing mode : zlib
Codec ID : S_HDMV/PGS
Codec ID/Info : The same subtitle format used on BDs/HD-DVDs
Title : SDH
Language : English
Default : No
Forced : No
log:
[info]: frame I:3291 Avg QP:18,41 size: 85717 PSNR Mean Y:45,37 U:49,59 V:50,70 Avg:46,39 Global:46,01
[info]: frame P:89194 Avg QP:21,48 size: 34263 PSNR Mean Y:42,52 U:48,15 V:49,46 Avg:43,69 Global:43,29
[info]: frame B:62301 Avg QP:23,50 size: 12264 PSNR Mean Y:41,57 U:51,13 V:52,60 Avg:42,87 Global:42,24
[info]: consecutive B-frames: 27,5% 50,3% 10,4% 8,2% 2,9% 0,5% 0,1% 0,0% 0,0% 0,2%
[info]: mb I I16..4: 4,8% 84,5% 10,7%
[info]: mb P I16..4: 0,9% 9,0% 1,0% P16..4: 56,7% 18,5% 9,1% 0,0% 0,0% skip: 4,7%
[info]: mb B I16..4: 0,0% 0,6% 0,1% B16..8: 48,9% 8,5% 2,7% direct: 6,0% skip:33,1% L0:39,5% L1:46,5% BI:14,0%
[info]: 8x8 transform intra:83,1% inter:68,8%
[info]: coded y,uvDC,uvAC intra: 90,2% 74,5% 37,5% inter: 46,1% 29,6% 2,4%
[info]: i16 v,h,dc,p: 32% 26% 7% 36%
[info]: i8 v,h,dc,ddl,ddr,vr,hd,vl,hu: 6% 11% 6% 11% 15% 13% 15% 10% 14%
[info]: i4 v,h,dc,ddl,ddr,vr,hd,vl,hu: 8% 11% 3% 9% 15% 14% 16% 11% 14%
[info]: i8c dc,h,v,p: 34% 32% 17% 17%
[info]: Weighted P-Frames: Y:2,9% UV:1,3%
[info]: ref P L0: 50,3% 9,2% 15,3% 7,0% 5,4% 4,0% 3,5% 2,3% 2,2% 1,0% 0,0%
[info]: ref B L0: 72,4% 11,5% 5,8% 3,5% 2,6% 2,2% 1,7% 0,3%
[info]: ref B L1: 96,3% 3,7%
[info]: SSIM Mean Y:0,9654770 (14,619db)
[info]: PSNR Mean Y:42,202 U:49,383 V:50,753 Avg:43,417 Global:42,879 kb/s:5083,43
Скріншоти:
Original vs Encode




Потрійний форсаж: Токійський дрифт / The Fast and the Furious: Tokyo Drift (2006) 720p Ukr/Eng | Sub Eng:

Потрійний форсаж: Токійський дрифт / The Fast and the Furious: Tokyo Drift (2006) 720p Ukr/Eng | Sub Eng



Жанр: бойовик, трилер, кримінальний
Країна: США



Кіностудія / кінокомпанія: Universal Pictures
Режисер: Джастін Лін
Актори: Лукас Блек, Зачері Ті Брайян, Ніккі Гріффін, Наталі Келлі, Боу УЗП, Брайян Ті, Сун Канг

Сюжет:
Тепер вони в Токіо! Щоб уникнути в'язниці, Шон Босвелл відправляється до свого дядька до Японії. Але і тут хлопцеві не втриматися від спокуси вкрасти чергову красиву машину. В три рази швидше, чим раніше - це «Потрійний форсаж»!


Тривалість: 01:44:14
Якість:
Відео:
кодек:
розмір кадру: 1280 х 544
бітрейт: 5041 кб/с

Аудіо # 1:
мова: українська
переклад: багатоголосий закадровий | Так Треба Продакшн |
кодек: 5.1
бітрейт: 448 кб/с

Аудіо # 2:
мова: англійська
переклад: оригінал
кодек: 5.1
бітрейт: 384 кб/с

Субтитри # 1:
мова: англійська (SDH)
тип: програмні (м'які)
формат: *.ass
MediaInfo:
File size : 4.28 GiB
Duration : 1h 44mn
Overall bit rate : 5 876 Kbps
Encoded date : UTC 2012-05-17 21:59:50
Writing application : mkvmerge v5.5.0 ('Healer') built on Apr 7 2012 12:04:29
Writing library : libebml v1.2.2 + libmatroska v1.3.0

Video
ID : 1
Format : AVC
Format/Info : Advanced Video Codec
Format profile : [email protected]
Format settings, CABAC : Yes
Format settings, ReFrames : 9 frames
Codec ID : V_MPEG4/ISO/AVC
Duration : 1h 44mn
Bit rate : 5 041 Kbps
Width : 1 280 pixels
Height : 544 pixels
Display aspect ratio : 2.35:1
Frame rate mode : Variable
Frame rate : 23.976 fps
Color space : YUV
Chroma subsampling : 4:2:0
Bit depth : 8 bits
Scan type : Progressive
Bits/(Pixel*Frame) : 0.302
Stream size : 3.59 GiB (84%)
Title : For Hurtom by Zeus62
Writing library : core 112
Encoding settings : cabac=1 / ref=9 / deblock=1:-3:-3 / analyse=0x3:0x113 / me=umh / subme=10 / psy=1 / psy_rd=1,00:0,00 / mixed_ref=0 / me_range=64 / chroma_me=1 / trellis=2 / 8x8dct=1 / cqm=0 / deadzone=21,11 / fast_pskip=1 / chroma_qp_offset=-2 / threads=9 / sliced_threads=0 / nr=0 / decimate=1 / interlaced=0 / constrained_intra=0 / bframes=9 / b_pyramid=2 / b_adapt=1 / b_bias=0 / direct=1 / weightb=0 / open_gop=0 / weightp=2 / keyint=240 / keyint_min=23 / scenecut=40 / intra_refresh=0 / rc_lookahead=40 / rc=2pass / mbtree=1 / bitrate=5041 / ratetol=1,0 / qcomp=0,60 / qpmin=3 / qpmax=51 / qpstep=4 / cplxblur=20,0 / qblur=0,5 / ip_ratio=1,40 / aq=1:1,00
Language : Ukrainian
Default : Yes
Forced : No
Color primaries : BT.709-5, BT.1361, IEC 61966-2-4, SMPTE RP177
Transfer characteristics : BT.709-5, BT.1361
Matrix coefficients : BT.709-5, BT.1361, IEC 61966-2-4 709, SMPTE RP177

Audio #1
ID : 2
Format : AC-3
Format/Info : Audio Coding 3
Mode extension : CM (complete main)
Format settings, Endianness : Big
Codec ID : A_AC3
Duration : 1h 44mn
Bit rate mode : Constant
Bit rate : 448 Kbps
Channel(s) : 6 channels
Channel positions : Front: L C R, Side: L R, LFE
Sampling rate : 48.0 KHz
Bit depth : 16 bits
Compression mode : Lossy
Stream size : 334 MiB (8%)
Language : Ukrainian
Default : Yes
Forced : No

Audio #2
ID : 3
Format : AC-3
Format/Info : Audio Coding 3
Mode extension : CM (complete main)
Format settings, Endianness : Big
Codec ID : A_AC3
Duration : 1h 44mn
Bit rate mode : Constant
Bit rate : 384 Kbps
Channel(s) : 6 channels
Channel positions : Front: L C R, Side: L R, LFE
Sampling rate : 48.0 KHz
Bit depth : 16 bits
Compression mode : Lossy
Stream size : 286 MiB (7%)
Language : English
Default : No
Forced : No

Text
ID : 4
Format : ASS
Codec ID : S_TEXT/ASS
Codec ID/Info : Advanced Sub Station Alpha
Compression mode : Lossless
Language : English
Default : No
Forced : No
log:
[info]: frame I:3120 Avg QP:16,50 size: 91793 PSNR Mean Y:47,27 U:48,91 V:50,11 Avg:47,84 Global:47,48
[info]: frame P:89489 Avg QP:18,93 size: 33433 PSNR Mean Y:45,08 U:47,22 V:48,63 Avg:45,75 Global:45,38
[info]: frame B:57340 Avg QP:20,98 size: 11500 PSNR Mean Y:44,16 U:47,55 V:49,13 Avg:44,99 Global:44,44
[info]: consecutive B-frames: 33,7% 39,8% 12,3% 8,8% 4,6% 0,5% 0,0% 0,0% 0,0% 0,2%
[info]: mb I I16..4: 4,7% 85,1% 10,2%
[info]: mb P I16..4: 1,4% 10,4% 0,9% P16..4: 56,9% 17,0% 8,9% 0,0% 0,0% skip: 4,5%
[info]: mb B I16..4: 0,0% 0,4% 0,1% B16..8: 47,9% 8,1% 2,5% direct: 7,2% skip:33,8% L0:39,6% L1:47,1% BI:13,3%
[info]: 8x8 transform intra:82,6% inter:69,1%
[info]: coded y,uvDC,uvAC intra: 86,2% 88,7% 70,2% inter: 43,0% 42,4% 13,4%
[info]: i16 v,h,dc,p: 30% 21% 10% 39%
[info]: i8 v,h,dc,ddl,ddr,vr,hd,vl,hu: 7% 10% 6% 11% 15% 13% 15% 11% 14%
[info]: i4 v,h,dc,ddl,ddr,vr,hd,vl,hu: 7% 10% 4% 10% 16% 13% 15% 11% 14%
[info]: i8c dc,h,v,p: 47% 21% 14% 18%
[info]: Weighted P-Frames: Y:1,8% UV:1,2%
[info]: ref P L0: 50,6% 7,5% 16,0% 7,3% 5,4% 4,1% 3,7% 2,2% 2,1% 1,2% 0,0%
[info]: ref B L0: 71,0% 12,6% 6,0% 3,3% 2,6% 2,1% 2,0% 0,3%
[info]: ref B L1: 95,1% 4,9%
[info]: SSIM Mean Y:0,9782122 (16,618db)
[info]: PSNR Mean Y:44,772 U:47,380 V:48,851 Avg:45,503 Global:45,028 kb/s:5036,88
Скріншоти:
Original vs Encode




Форсаж 4 / Fast & Furious 4 (2009) 720p Ukr/Eng | Sub Eng:

Форсаж 4 / Fast & Furious 4 (2009) 720p Ukr/Eng | Sub Eng





Кіностудія / кінокомпанія: Universal Pictures, Original Film
Режисер: Джастін Лін
Актори: Він Дізель, Пол Уокер, Мішель Родрігез, Джордана Брюстер, Лаз Алонсо, Джон Ортіз, Санг Кенг

Сюжет:
Коли крива доріжка змушує Дома Торетто повернутися до Лос-Анджелеса, ворожнеча з агентом Брайаном О’Коннером спалахує з новою силою. Але в парочки виявляється загальний противник і Домініку з Брайаном доводиться укласти перемир'я в надії отримати над ним перемогу. Грабуючи конвої, риючи підкопи і пересікаючи кордони, вони приходять до ідеальної форми помсти - міцно втиснутої педалі газу.


Тривалість: 01:46:52
Якість:
Відео:
кодек:
розмір кадру: 1280 x 532
бітрейт: 5263 кб/с

Аудіо # 1:
мова: українська
переклад: професійний дубльований
кодек: 5.1
бітрейт: 448 кб/с

Аудіо # 2:
мова: англійська
переклад: оригінал
кодек: 5.1
бітрейт: 384 кб/с

Субтитри # 1:
мова: англійська (SDH)
тип: пререндерні
формат: *.pgs
MediaInfo:
File size : 4.26 GiB
Duration : 1h 46mn
Overall bit rate : 5 711 Kbps
Encoded date : UTC 2012-05-19 07:04:03
Writing application : mkvmerge v5.5.0 ('Healer') built on Apr 7 2012 12:04:29
Writing library : libebml v1.2.2 + libmatroska v1.3.0

Video
ID : 1
Format : AVC
Format/Info : Advanced Video Codec
Format profile : [email protected]
Format settings, CABAC : Yes
Format settings, ReFrames : 9 frames
Codec ID : V_MPEG4/ISO/AVC
Duration : 1h 46mn
Bit rate : 4 765 Kbps
Nominal bit rate : 5 263 Kbps
Width : 1 280 pixels
Height : 532 pixels
Display aspect ratio : 2.40:1
Frame rate mode : Variable / Variable
Frame rate : 23.976 fps
Color space : YUV
Chroma subsampling : 4:2:0
Bit depth : 8 bits
Scan type : Progressive
Bits/(Pixel*Frame) : 0.292
Stream size : 3.56 GiB (83%)
Title : For Hurtom by Zeus62
Writing library : core 112
Encoding settings : cabac=1 / ref=9 / deblock=1:-3:-3 / analyse=0x3:0x113 / me=umh / subme=10 / psy=1 / psy_rd=1,00:0,00 / mixed_ref=1 / me_range=64 / chroma_me=1 / trellis=2 / 8x8dct=1 / cqm=0 / deadzone=21,11 / fast_pskip=1 / chroma_qp_offset=-2 / threads=9 / sliced_threads=0 / nr=0 / decimate=1 / interlaced=0 / constrained_intra=0 / bframes=9 / b_pyramid=2 / b_adapt=2 / b_bias=0 / direct=1 / weightb=1 / open_gop=0 / weightp=2 / keyint=240 / keyint_min=23 / scenecut=40 / intra_refresh=0 / rc_lookahead=50 / rc=2pass / mbtree=1 / bitrate=5263 / ratetol=1,0 / qcomp=0,60 / qpmin=3 / qpmax=51 / qpstep=4 / cplxblur=20,0 / qblur=0,5 / ip_ratio=1,40 / aq=1:1,00
Language : Ukrainian
Default : Yes
Forced : No
Color primaries : BT.709-5, BT.1361, IEC 61966-2-4, SMPTE RP177
Transfer characteristics : BT.709-5, BT.1361
Matrix coefficients : BT.709-5, BT.1361, IEC 61966-2-4 709, SMPTE RP177

Audio #1
ID : 2
Format : AC-3
Format/Info : Audio Coding 3
Mode extension : CM (complete main)
Format settings, Endianness : Big
Codec ID : A_AC3
Duration : 1h 46mn
Bit rate mode : Constant
Bit rate : 448 Kbps
Channel(s) : 6 channels
Channel positions : Front: L C R, Side: L R, LFE
Sampling rate : 48.0 KHz
Bit depth : 16 bits
Compression mode : Lossy
Stream size : 342 MiB (8%)
Language : Ukrainian
Default : Yes
Forced : No

Audio #2
ID : 3
Format : AC-3
Format/Info : Audio Coding 3
Mode extension : CM (complete main)
Format settings, Endianness : Big
Codec ID : A_AC3
Duration : 1h 46mn
Bit rate mode : Constant
Bit rate : 384 Kbps
Channel(s) : 6 channels
Channel positions : Front: L C R, Side: L R, LFE
Sampling rate : 48.0 KHz
Bit depth : 16 bits
Compression mode : Lossy
Stream size : 294 MiB (7%)
Language : English
Default : No
Forced : No

Text
ID : 4
Format : PGS
Muxing mode : zlib
Codec ID : S_HDMV/PGS
Codec ID/Info : The same subtitle format used on BDs/HD-DVDs
Language : English
Default : No
Forced : No
log:
[info]: frame I:1407 Avg QP:13,51 size:121123 PSNR Mean Y:49,08 U:51,02 V:51,59 Avg:49,70 Global:49,36
[info]: frame P:34570 Avg QP:17,05 size: 44813 PSNR Mean Y:46,47 U:48,54 V:49,52 Avg:47,14 Global:46,59
[info]: frame B:107035 Avg QP:18,76 size: 20602 PSNR Mean Y:45,14 U:47,64 V:48,94 Avg:45,92 Global:45,40
[info]: consecutive B-frames: 3,2% 5,3% 8,7% 22,1% 13,0% 38,0% 4,0% 2,6% 1,2% 1,9%
[info]: mb I I16..4: 3,7% 77,0% 19,2%
[info]: mb P I16..4: 1,8% 17,6% 2,5% P16..4: 33,4% 27,4% 14,8% 0,0% 0,0% skip: 2,6%
[info]: mb B I16..4: 0,1% 2,6% 0,4% B16..8: 42,9% 17,5% 5,0% direct: 7,4% skip:24,1% L0:45,3% L1:43,5% BI:11,1%
[info]: 8x8 transform intra:80,9% inter:63,3%
[info]: coded y,uvDC,uvAC intra: 86,8% 83,8% 66,6% inter: 37,5% 27,1% 10,1%
[info]: i16 v,h,dc,p: 26% 21% 10% 44%
[info]: i8 v,h,dc,ddl,ddr,vr,hd,vl,hu: 10% 10% 8% 10% 13% 12% 13% 11% 13%
[info]: i4 v,h,dc,ddl,ddr,vr,hd,vl,hu: 29% 8% 5% 8% 11% 10% 11% 8% 10%
[info]: i8c dc,h,v,p: 44% 23% 16% 17%
[info]: Weighted P-Frames: Y:2,4% UV:1,6%
[info]: ref P L0: 46,5% 7,6% 18,5% 8,0% 6,2% 4,5% 3,9% 2,3% 2,2% 0,4% 0,0%
[info]: ref B L0: 69,3% 13,8% 7,0% 3,7% 2,6% 2,1% 1,2% 0,4%
[info]: ref B L1: 91,2% 8,8%
[info]: SSIM Mean Y:0,9799010 (16,968db)
[info]: PSNR Mean Y:45,500 U:47,891 V:49,103 Avg:46,252 Global:45,685 kb/s:5263,74
Скріншоти:
Original vs Encode




Форсаж 5: Швидка п'ятiрка. Пограбування в Ріо / Fast Five (2011) 720p Ukr/Eng | Sub 2xEng:

Форсаж 5: Швидка п'ятiрка. Пограбування в Ріо / Fast Five (2011) 720p Ukr/Eng | Sub 2xEng





Кіностудія / кінокомпанія: Universal Pictures, Original Film, One Race Productions
Режисер: Джастін Лін
Актори: Він Дізель, Пол Вокер, Джордана Брюстер, Тайріз Гібсон, Лудакріс, Ельза Патакі, Двейн Джонсон

Сюжет:
Колишній поліцейський Брайан О `Коннер разом з бувалим лихачем Домом Торетто зовсім трохи захопилися життям поза законом. Після того, як Брайан і Міа Торетто звільнили Дома, вони не ризикують довго затримуватися на одному місці, тому що є бажаною метою порядком незадоволених копів.


Тривалість: 02:10:21
Якість:
Відео:
кодек:
розмір кадру: 1280 x 544
бітрейт: 3875 кб/с

Аудіо # 1:
мова: українська
переклад: професійний дубльований
кодек: 5.1
бітрейт: 384 кб/с

Аудіо # 2:
мова: англійська
переклад: оригінал
кодек: 5.1
бітрейт: 384 кб/с

Субтитри # 1:
мова: англійська (SDH)
тип: пререндерні
формат: *.pgs

Субтитри # 2:
мова: англійська (Commentary)
тип: пререндерні
формат: *.pgs
MediaInfo:
File size : 4.26 GiB
Duration : 2h 10mn
Overall bit rate : 4 673 Kbps
Encoded date : UTC 2012-05-17 22:33:33
Writing application : mkvmerge v5.5.0 ('Healer') built on Apr 7 2012 12:04:29
Writing library : libebml v1.2.2 + libmatroska v1.3.0

Video
ID : 1
Format : AVC
Format/Info : Advanced Video Codec
Format profile : [email protected]
Format settings, CABAC : Yes
Format settings, ReFrames : 9 frames
Codec ID : V_MPEG4/ISO/AVC
Duration : 2h 10mn
Bit rate : 3 875 Kbps
Width : 1 280 pixels
Height : 544 pixels
Display aspect ratio : 2.35:1
Frame rate mode : Variable
Frame rate : 23.976 fps
Color space : YUV
Chroma subsampling : 4:2:0
Bit depth : 8 bits
Scan type : Progressive
Bits/(Pixel*Frame) : 0.232
Stream size : 3.47 GiB (82%)
Title : For Hurtom by Zeus62
Writing library : core 112
Encoding settings : cabac=1 / ref=9 / deblock=1:-3:-3 / analyse=0x3:0x113 / me=umh / subme=10 / psy=1 / psy_rd=1,00:0,00 / mixed_ref=0 / me_range=64 / chroma_me=1 / trellis=2 / 8x8dct=1 / cqm=0 / deadzone=21,11 / fast_pskip=1 / chroma_qp_offset=-2 / threads=9 / sliced_threads=0 / nr=0 / decimate=1 / interlaced=0 / constrained_intra=0 / bframes=9 / b_pyramid=2 / b_adapt=1 / b_bias=0 / direct=1 / weightb=0 / open_gop=0 / weightp=2 / keyint=240 / keyint_min=23 / scenecut=40 / intra_refresh=0 / rc_lookahead=40 / rc=2pass / mbtree=1 / bitrate=3875 / ratetol=1,0 / qcomp=0,60 / qpmin=3 / qpmax=51 / qpstep=4 / cplxblur=20,0 / qblur=0,5 / ip_ratio=1,40 / aq=1:1,00
Language : Ukrainian
Default : Yes
Forced : No
Color primaries : BT.709-5, BT.1361, IEC 61966-2-4, SMPTE RP177
Transfer characteristics : BT.709-5, BT.1361
Matrix coefficients : BT.709-5, BT.1361, IEC 61966-2-4 709, SMPTE RP177

Audio #1
ID : 2
Format : AC-3
Format/Info : Audio Coding 3
Mode extension : CM (complete main)
Format settings, Endianness : Big
Codec ID : A_AC3
Duration : 2h 10mn
Bit rate mode : Constant
Bit rate : 384 Kbps
Channel(s) : 6 channels
Channel positions : Front: L C R, Side: L R, LFE
Sampling rate : 48.0 KHz
Bit depth : 16 bits
Compression mode : Lossy
Stream size : 358 MiB (8%)
Language : Ukrainian
Default : Yes
Forced : No

Audio #2
ID : 3
Format : AC-3
Format/Info : Audio Coding 3
Mode extension : CM (complete main)
Format settings, Endianness : Big
Codec ID : A_AC3
Duration : 2h 10mn
Bit rate mode : Constant
Bit rate : 384 Kbps
Channel(s) : 6 channels
Channel positions : Front: L C R, Side: L R, LFE
Sampling rate : 48.0 KHz
Bit depth : 16 bits
Compression mode : Lossy
Stream size : 358 MiB (8%)
Language : English
Default : No
Forced : No

Text #1
ID : 4
Format : PGS
Muxing mode : zlib
Codec ID : S_HDMV/PGS
Codec ID/Info : The same subtitle format used on BDs/HD-DVDs
Title : SDH
Language : English
Default : No
Forced : No

Text #2
ID : 5
Format : PGS
Muxing mode : zlib
Codec ID : S_HDMV/PGS
Codec ID/Info : The same subtitle format used on BDs/HD-DVDs
Title : Commentary
Language : English
Default : No
Forced : No
log:
[info]: frame I:3985 Avg QP:17,13 size: 86886 PSNR Mean Y:46,05 U:49,30 V:49,86 Avg:46,92 Global:46,47
[info]: frame P:116750 Avg QP:20,51 size: 24965 PSNR Mean Y:44,04 U:47,94 V:48,71 Avg:45,03 Global:44,49
[info]: frame B:66787 Avg QP:22,77 size: 7896 PSNR Mean Y:43,79 U:48,19 V:49,01 Avg:44,85 Global:43,77
[info]: consecutive B-frames: 39,2% 35,1% 10,1% 8,6% 6,0% 0,2% 0,1% 0,0% 0,0% 0,6%
[info]: mb I I16..4: 7,8% 77,9% 14,4%
[info]: mb P I16..4: 1,3% 6,4% 0,7% P16..4: 56,6% 14,3% 8,3% 0,0% 0,0% skip:12,4%
[info]: mb B I16..4: 0,0% 0,3% 0,0% B16..8: 51,2% 5,6% 1,7% direct: 3,5% skip:37,5% L0:41,4% L1:49,7% BI: 8,9%
[info]: 8x8 transform intra:76,8% inter:68,3%
[info]: coded y,uvDC,uvAC intra: 82,2% 73,9% 46,4% inter: 30,3% 21,1% 3,3%
[info]: i16 v,h,dc,p: 32% 19% 12% 37%
[info]: i8 v,h,dc,ddl,ddr,vr,hd,vl,hu: 7% 9% 6% 11% 15% 13% 15% 11% 14%
[info]: i4 v,h,dc,ddl,ddr,vr,hd,vl,hu: 6% 10% 4% 11% 16% 13% 15% 11% 15%
[info]: i8c dc,h,v,p: 41% 27% 16% 16%
[info]: Weighted P-Frames: Y:2,0% UV:1,4%
[info]: ref P L0: 50,2% 6,9% 16,7% 7,3% 5,5% 4,1% 3,7% 2,5% 2,0% 1,2% 0,0%
[info]: ref B L0: 69,0% 13,7% 6,7% 3,6% 2,7% 2,3% 1,7% 0,3%
[info]: ref B L1: 94,0% 6,0%
[info]: SSIM Mean Y:0,9737377 (15,807db)
[info]: PSNR Mean Y:43,995 U:48,056 V:48,841 Avg:45,005 Global:44,251 kb/s:3874,79
Скріншоти:
Original vs Encode




Джерело: Власний ріп +
Подяка hellforces, himera33a, Musketeer, Gelios - за постери, Lan, ua2004 та rostik_neo - за українські доріжки.
Особиста оцінка: 10 - без зайвих вагань рекомендую всім!


Бронзовий реліз (на рейтинг впливає 75% завантаженого)
 Трекер:    Зареєстрований   

Завантажити / скачати фільм українською



відео для новачків



 Зареєстрований:   2012-05-19 11:32
 Розмір:   21.98 GB 
 Оцінка фільму:   9.3/10 (Голосів: 31)
   
braveboy 
Відео Гуртом - команда HD
Відео Гуртом - команда HD


З нами з: 15.06.10
Востаннє: 29.10.16
Повідомлень: 958

2012-05-18 22:55  
на майбутнє став профіль [email protected] 
Zeus62 
Відео Гуртом - команда HD
Відео Гуртом - команда HD


З нами з: 29.12.08
Востаннє: 16.11.16
Повідомлень: 330

2012-05-18 22:56  
Цитата:
на майбутнє став профіль [email protected]

Досить вже це повторювати) Я ж говорю, що точно 4.1 виставити не можу. Нема потрібного налаштування а програмі.
Ось, що я можу налаштувати щодо профайлів і все:
Скрін:
Форсаж. Пенталогія / The Fast and the Furious. Pentalogy (2001-2011) 720p Ukr/Eng | Sub Eng

braveboy 
Відео Гуртом - команда HD
Відео Гуртом - команда HD


З нами з: 15.06.10
Востаннє: 29.10.16
Повідомлень: 958

2012-05-18 23:01  
Zeus62 написано:
Досить вже це повторювати) Я ж говорю, що точно 4.1 виставити не можу. Нема потрібного налаштування а програмі.

вистав його в ручну

Додано через 48 секунд:

зараз напишу тобі в приват як це зробити

Zeus62 
Відео Гуртом - команда HD
Відео Гуртом - команда HD


З нами з: 29.12.08
Востаннє: 16.11.16
Повідомлень: 330

2012-05-18 23:02  
Цитата:
зараз напишу тобі в приват як це зробити

ок

Gelios 
Відео Гуртом - дизайнер
Відео Гуртом - дизайнер


З нами з: 03.09.11
Востаннє: 07.12.16
Повідомлень: 1882

2012-05-19 07:54  
Zeus62
Ось якісніший постер до 3-ої частини від himera33a:
Потрійний форсаж: Токійський дрифт / The Fast and the Furious: Tokyo Drift (2006)
Zeus62 написано:
Форсаж 5: Швидка п'ятiрка. Пограбування в Ріо / Fast Five (2011) 720p Ukr/Eng | Sub 2xEng:

5-та частина найкраща!
(До речі постер офіційний? Там пише Hurtom.com)

Zeus62 
Відео Гуртом - команда HD
Відео Гуртом - команда HD


З нами з: 29.12.08
Востаннє: 16.11.16
Повідомлень: 330

2012-05-19 08:53  
Цитата:
Ось якісніший постер до 3-ої частини від himera33a:

Дякую. Щодо постеру до 5 частини не можу сказати, бо він в мене вже давно і я не пам’ятаю звідки взявся)

bot 
робот


З нами з: 30.09.07
Востаннє: 26.05.05
Повідомлень: 16030

2012-05-19 11:32  
Тему перенесено з Анонси релізів від Відео Гуртом до форуму Фільми в HD


Zeus62

taras1994 
Почесний оцифрувальник літератури


З нами з: 23.03.12
Востаннє: 30.11.16
Повідомлень: 5096

2012-05-19 14:24  
Нарешті "Наш Формат", качаю!
lov1k 
VIP


З нами з: 13.12.09
Востаннє: 06.12.16
Повідомлень: 266

2012-05-19 19:01  
Gelios написано:
До речі постер офіційний?

очевидно, що ні. видно білий фон за назвою і знизу англійський текст.

Patriot_Oleksiy 
Новенький


З нами з: 02.05.12
Востаннє: 27.05.12
Повідомлень: 2

2012-05-20 20:10  
[*][*][*][*][*][b]Завантажу та обов'язково стаю на роздачу [/b][quote][*][*][*][*][*][b]Завантажу та обов'язково стаю на роздачу [/b][/quote]
ratbol 
Модератор HD


З нами з: 03.02.09
Востаннє: 07.12.16
Повідомлень: 1088

2012-05-25 16:26  
У першій частні звук вказали неправильно, має бути:
Так Треба Продакшн на замовлення ТРК Україна, ТВ+ на замовлення ICTV, як і в попередніх релізах.
Ще у другій частині звук все-одно дещо випереджає відео.

Додано через 9 хвилин 24 секунди:

І ще якщо можливо, хотілося б дізнатись хто конкретно синхронізував кожну із доріжок.

Zeus62 
Відео Гуртом - команда HD
Відео Гуртом - команда HD


З нами з: 29.12.08
Востаннє: 16.11.16
Повідомлень: 330

2012-06-22 23:27  
Цитата:
І ще якщо можливо, хотілося б дізнатись хто конкретно синхронізував кожну із доріжок.

Щодо цього нічого не можу сказати. Все, що я знав про доріжки, я написав.

ua2004 
Відео Гуртом - фільмокрай
Відео Гуртом - фільмокрай


З нами з: 31.01.08
Востаннє: 06.12.16
Повідомлень: 3128

2012-06-23 17:20  
ratbol написано:
І ще якщо можливо, хотілося б дізнатись хто конкретно синхронізував кожну із доріжок.

Сирець до третьої частини записував я.

kysel 
Частий відвідувач


З нами з: 28.06.12
Востаннє: 07.12.16
Повідомлень: 29

2016-04-11 21:21  
Zeus62
Підправ ріп 4-ї частини. Вкінці здається чогось бракує ....

Ваш часовий пояс: GMT + 2 Години

Нова тема   Відповісти