Завантажити та скачати торренти українською


Шоу Трумена / The Truman Show (1998) 720p Ukr/Eng | sub Ukr/Eng

Нові коментарі

Нова тема   Відповісти
Автор Повідомлення
xfsthe 
Оцифрування книг Гуртом
Оцифрування книг Гуртом


З нами з: 13.02.11
Востаннє: 07.12.16
Повідомлень: 279

2012-05-15 14:30  
Шоу Трумена / The Truman Show (1998) 720p Ukr/Eng | sub Ukr/Eng

Шоу Трумена / The Truman Show (1998) 720p Ukr/Eng | sub Ukr/Eng


Жанр: комедія, драма
Країна: США



Кіностудія / кінокомпанія: Paramount Pictures
Режисер: Пітер Вір
Актори: Джим Керрі, Лора Лінні, Ед Харріс, Ноа Еммеріх, Наташа Макелхон

Сюжет:
Усе своє життя від самого народження Труман Бербанк, навіть не здогадуючись про це, цілодобово проводить перед об'єктивами телекамер. Він безвиїзно живе і працює на маленькому острові Сіхевен, який насправді є знімальним майданчиком і населений акторами шоу, головним героєм якого і є Труман. На тридцятому році життя у вигаданому світі Труман через випадкову помилку знімальної групи починає замислюватися про несправжність Сіхевена і намагається втекти за його межі. Цьому активно перешкоджає керівник шоу Крістоф, який боїться втратити зірку свого проекту.


Тривалість: 01:42:56
Якість: 720p
Відео:
кодек:
розмір кадру: 1280 х 720
бітрейт: 4 990 кб/с

Аудіо #1:
мова: українська
переклад: багатоголосий закадровий
кодек: 5.1
бітрейт: 448 кб/с

Аудіо #2:
мова: англійська
переклад: оригінал
кодек: 5.1
бітрейт: 640 кб/с

Субтитри #1:
мова: українська by LIONN
тип: програмні (м'які)
формат: *.srt

Субтитри #2:
мова: англійська
тип: програмні (м'які)
формат: *.srt

Джерело озвучення:
ТО "Цікава ідея" на замовлення Hurtom.com в рамках проекту Хочеш кіно українською?Замовляй!
MediaInfo

General
Unique ID : 114393665569966639284336400013128563612 (0x560F6B292B4F3246CF647F436746FB9C)
Complete name : /media/soft/The Truman Show (1998) [ukr,eng] sub[ukr,eng] 720p [Hurtom].mkv
Format : Matroska
Format version : Version 2
File size : 4.37 GiB
Duration : 1h 42mn
Overall bit rate : 6 080 Kbps
Movie name : Шоу Трумена / The Truman Show (1998) 720p
Encoded date : UTC 2012-05-15 12:04:05
Writing application : mkvmerge v5.1.0 ('And so it goes') built on Feb 1 2012 11:31:23
Writing library : libebml v1.2.2 + libmatroska v1.3.0

Video
ID : 1
Format : AVC
Format/Info : Advanced Video Codec
Format profile : [email protected]
Format settings, CABAC : Yes
Format settings, ReFrames : 9 frames
Codec ID : V_MPEG4/ISO/AVC
Duration : 1h 42mn
Bit rate : 4 990 Kbps
Width : 1 280 pixels
Height : 720 pixels
Display aspect ratio : 16:9
Frame rate : 23.976 fps
Color space : YUV
Chroma subsampling : 4:2:0
Bit depth : 8 bits
Scan type : Progressive
Bits/(Pixel*Frame) : 0.226
Stream size : 3.50 GiB (80%)
Title : Шоу Трумена / The Truman Show (1998) 720p
Writing library : core 65 r1070M 6f7c9be
Encoding settings : cabac=1 / ref=9 / deblock=1:-3:-3 / analyse=0x3:0x113 / me=umh / subme=9 / psy_rd=1.0:0.0 / mixed_ref=1 / me_range=32 / chroma_me=1 / trellis=0 / 8x8dct=1 / cqm=2 / deadzone=6,4 / chroma_qp_offset=-2 / threads=6 / nr=0 / decimate=1 / mbaff=0 / bframes=3 / b_pyramid=1 / b_adapt=2 / b_bias=0 / direct=3 / wpredb=1 / keyint=240 / keyint_min=24 / scenecut=40(pre) / rc=2pass / bitrate=4990 / ratetol=1.0 / qcomp=0.60 / qpmin=10 / qpmax=51 / qpstep=4 / cplxblur=20.0 / qblur=0.5 / ip_ratio=1.40 / pb_ratio=1.30 / aq=1:1.00
Language : English
Default : Yes
Forced : Yes

Audio #1
ID : 2
Format : AC-3
Format/Info : Audio Coding 3
Mode extension : CM (complete main)
Format settings, Endianness : Big
Codec ID : A_AC3
Duration : 1h 42mn
Bit rate mode : Constant
Bit rate : 448 Kbps
Channel(s) : 6 channels
Channel positions : Front: L C R, Side: L R, LFE
Sampling rate : 48.0 KHz
Bit depth : 16 bits
Compression mode : Lossy
Stream size : 330 MiB (7%)
Title : 5.1 @ 448 kbps | "Цікава ідея" для Гуртом.com
Language : Ukrainian
Default : Yes
Forced : Yes

Audio #2
ID : 3
Format : AC-3
Format/Info : Audio Coding 3
Mode extension : CM (complete main)
Format settings, Endianness : Big
Codec ID : A_AC3
Duration : 1h 42mn
Bit rate mode : Constant
Bit rate : 640 Kbps
Channel(s) : 6 channels
Channel positions : Front: L C R, Side: L R, LFE
Sampling rate : 48.0 KHz
Bit depth : 16 bits
Compression mode : Lossy
Stream size : 471 MiB (11%)
Title : 5.1 @ 640 kbps
Language : English
Default : No
Forced : No

Text #1
ID : 4
Format : UTF-8
Codec ID : S_TEXT/UTF8
Codec ID/Info : UTF-8 Plain Text
Title : by LIONN
Language : Ukrainian
Default : No
Forced : No

Text #2
ID : 5
Format : UTF-8
Codec ID : S_TEXT/UTF8
Codec ID/Info : UTF-8 Plain Text
Language : English
Default : No
Forced : No
Світлини:






Джерело: &
Особиста оцінка: 10 - чудовий фільм.

Подяка панам:
Цікава ідея - українська звукова доріжка
LIONN - українські субтитри
grytzz - постер


Авторський реліз (завантажувати можна без реєстрації)
 Трекер:    Зареєстрований   

Завантажити / скачати фільм українською



відео для новачків



 Зареєстрований:   2012-05-15 14:30
 Розмір:   4.37 GB 
 Оцінка фільму:   9.6/10 (Голосів: 36)
   
Інші релізи
   Шоу Трумана / The Truman Show (1998) [640х360] apvAltisimo  0 / 0   889 MB   2014-03-09 18:11 
   Шоу Трумена / The Truman Show (1998) 1080p 2хUkr/Eng | Sub 2хUkr/Eng ratbol  3 / 0   10.3 GB   2013-11-02 10:10 
   Шоу Трумена / The Truman Show (1998) 720p 2хUkr/Eng | Sub 2хUkr/Eng ratbol  1 / 0   6.14 GB   2013-11-02 10:09 
   Шоу Трумена / The Truman Show (1998) 2xUkr/Eng | Sub Ukr/Eng karvai0  6 / 0   2.18 GB   2013-06-17 10:57 
   Шоу Трумена / The Truman Show (1998) BASTERD-94  0 / 0   1.46 GB   2012-05-18 15:30 
Gelios 
Відео Гуртом - дизайнер
Відео Гуртом - дизайнер


З нами з: 03.09.11
Востаннє: 08.12.16
Повідомлень: 1882

2012-05-15 15:31  
Шоу Трумена / The Truman Show (1998)

Imperatore 
Відео Гуртом - підтримка та поширення
Відео Гуртом - підтримка та поширення


З нами з: 09.10.11
Востаннє: 08.12.16
Повідомлень: 337

2012-05-15 15:53  
Класний постер!
Дмитро митро 
Відео Гуртом - дизайнер
Відео Гуртом - дизайнер


З нами з: 18.02.09
Востаннє: 08.12.16
Повідомлень: 711

2012-05-15 15:59  
А чому на постері написано "Шоу ТрумАна"?
Gelios 
Відео Гуртом - дизайнер
Відео Гуртом - дизайнер


З нами з: 03.09.11
Востаннє: 08.12.16
Повідомлень: 1882

2012-05-15 16:00  
Дмитро митро
Тому що той постер робився для цього релізу:
http://toloka.to/t8815

Malyatkoden 
Частий відвідувач


З нами з: 03.05.12
Востаннє: 08.12.16
Повідомлень: 25

2012-05-15 16:35  
Модератори,може золото?аа?
ratbol 
Модератор HD


З нами з: 03.02.09
Востаннє: 07.12.16
Повідомлень: 1088

2012-05-15 17:03  
Чи добре лягла доріжка на цей відеоряд? Бо він троши довший ніж попередній.
І я так зрозумів, що 'а не буде? Тоді хоча б в 640 зібрали...

xfsthe 
Оцифрування книг Гуртом
Оцифрування книг Гуртом


З нами з: 13.02.11
Востаннє: 07.12.16
Повідомлень: 279

2012-05-15 17:09  
ratbol написано:
Чи добре лягла доріжка на цей відеоряд?

добре лягла.

Andick 
Модератор відео та координатор поширення


З нами з: 03.11.09
Востаннє: 06.12.16
Повідомлень: 1499

2012-05-15 17:59  
ratbol написано:
І я так зрозумів, що 'а не буде?
буде, але пізніше
коли саме ще сам незнаю

ratbol 
Модератор HD


З нами з: 03.02.09
Востаннє: 07.12.16
Повідомлень: 1088

2012-05-15 18:09  
Andick написано:
буде, але пізніше

Це тішить Happy

Дмитро митро 
Відео Гуртом - дизайнер
Відео Гуртом - дизайнер


З нами з: 18.02.09
Востаннє: 08.12.16
Повідомлень: 711

2012-05-15 18:42  
Gelios написано:
Тому що той постер робився для цього релізу:

Ні, ну це зрозуміло, але хіба можна було так написати "Шоу ТрумАна" це, як на мене, нісенітниця.

Gelios 
Відео Гуртом - дизайнер
Відео Гуртом - дизайнер


З нами з: 03.09.11
Востаннє: 08.12.16
Повідомлень: 1882

2012-05-15 18:52  
Дмитро митро написано:
Ні, ну це зрозуміло, але хіба можна було так написати "Шоу ТрумАна" це, як на мене, нісенітниця.

xfsthe написано:
grytzz

Автор робив так як було перекладено.

braveboy 
Відео Гуртом - команда HD
Відео Гуртом - команда HD


З нами з: 15.06.10
Востаннє: 29.10.16
Повідомлень: 958

2012-05-15 19:46  
xfsthe допиши
Цитата:
кодек:

Ваш часовий пояс: GMT + 2 Години

Нова тема   Відповісти