Завантажити та скачати торренти українською


Кримінальне чтиво / Pulp Fiction (1994) 720р Ukr/Eng | Sub 2xUkr

Нові коментарі

Нова тема   Відповісти
Автор Повідомлення
smak2001 
VIP


З нами з: 06.09.09
Востаннє: 06.12.16
Повідомлень: 457

2012-05-15 10:43  
Кримінальне чтиво / Pulp Fiction (1994) 720р Ukr/Eng | Sub 2xUkr




Жанр: драма, кримінальний, трилер
Країна: США


Кіностудія / кінокомпанія: A Band Apart, Jersey Films, Miramax Films
Режисер: Квентін Тарантіно / Quentin Tarantino
Актори: Джон Траволта / John Travolta, Семюель Л. Джексон / Samuel L. Jackson, Ума Турман / Uma Thurman, Вінг Реймс / Ving Rhames , Брюс Вілліс / Bruce Willis, Тім Рот / Tim Roth

Сюжет:
Двоє бандитів Вінсент Вега і Джулс Вінфілд проводять час у філософських бесідах у перерві між розбірками й «вирішенням проблем» з боржниками свого кримінального боса Марселуса Воллеса. Паралельно розгортається три історії.
У першій з них Вінсент доглядає за дружиною Марселуса Мієй і рятує її від передозування наркотиками. У другій розповідається про Бутча Куліджа, боксера, найнятого Воллесом, щоб здати бій, але обдурившого Воллеса. Третя історія об’єднує перші дві – в кафе парочка молодих невдачливих грабіжників – Пампкін і Хані Бані роблять спробу пограбування, але Джулс зупиняє їх.

Озвучено: студія "Омікрон" за підтримки екомагазину ecoist.com.ua. (квітень-травень 2012)

Тривалість: 02:34:24
Якість: 720p
Відео:
кодек:
розмір кадру: 1280 х 544
бітрейт: 4561 кб/с

Аудіо #1:
мова: українська
переклад: багатоголосий закадровий
кодек: 5.1
бітрейт: 1510 кб/с

Аудіо #2:
мова: англійська
переклад: оригінал
кодек: 5.1
бітрейт: 1510 кб/с

Субтитри #1: Мирослава Харчук
мова: українська (завантажити)
тип: програмні (м'які)
формат: *.srt

Субтитри #2: _oles
мова: українська (завантажити)
тип: програмні (м'які)
формат: *.srt

Переклад і озвучення виконано: на замовлення ecoist.com.ua.
МІ
Pulp.Fiction.1994..720p.Ukr.Eng.uateam.mkv
Format : Matroska
File size : 8.18 GiB
Duration : 2h 34mn
Overall bit rate : 7 581 Kbps
Movie name : UATEAM.TV
Encoded date : UTC 2012-05-14 12:16:22
Writing application : mkvmerge v2.9.0 ('Moanin'') built on May 22 2009 17:46:31
Writing library : libebml v0.7.7 + libmatroska v0.8.1

Video
ID : 1
Format : AVC
Format/Info : Advanced Video Codec
Format profile : [email protected]
Format settings, CABAC : Yes
Format settings, ReFrames : 12 frames
Muxing mode : Container [email protected]
Codec ID : V_MPEG4/ISO/AVC
Duration : 2h 34mn
Bit rate : 4 561 Kbps
Width : 1 280 pixels
Height : 544 pixels
Display aspect ratio : 2.35:1
Frame rate : 23.976 fps
Color space : YUV
Chroma subsampling : 4:2:0
Bit depth : 8 bits
Scan type : Progressive
Bits/(Pixel*Frame) : 0.273
Stream size : 4.76 GiB (58%)
Writing library : core 92 r1510 33d382a
Encoding settings : cabac=1 / ref=12 / deblock=1:-3:-3 / analyse=0x3:0x113 / me=umh / subme=10 / psy=1 / psy_rd=1.00:0.00 / mixed_ref=1 / me_range=64 / chroma_me=1 / trellis=2 / 8x8dct=1 / cqm=0 / deadzone=21,11 / fast_pskip=0 / chroma_qp_offset=-2 / threads=6 / sliced_threads=0 / nr=0 / decimate=0 / interlaced=0 / constrained_intra=0 / bframes=6 / b_pyramid=2 / b_adapt=2 / b_bias=0 / direct=3 / wpredb=1 / wpredp=2 / keyint=250 / keyint_min=25 / scenecut=40 / intra_refresh=0 / rc_lookahead=90 / rc=2pass / mbtree=1 / bitrate=4561 / ratetol=1.0 / qcomp=0.60 / qpmin=10 / qpmax=51 / qpstep=4 / cplxblur=20.0 / qblur=0.5 / ip_ratio=1.40 / aq=1:0.80
Language : English

Audio #1
ID : 2
Format :
Format/Info : Digital Theater Systems
Codec ID : A_DTS
Duration : 2h 34mn
Bit rate mode : Constant
Bit rate : 1 510 Kbps
Channel(s) : 6 channels
Channel positions : Front: L C R, Side: L R, LFE
Sampling rate : 48.0 KHz
Bit depth : 24 bits
Stream size : 1.63 GiB (20%)
Title : UATEAM.TV
Language : Ukrainian

Audio #2
ID : 3
Format :
Format/Info : Digital Theater Systems
Codec ID : A_DTS
Duration : 2h 34mn
Bit rate mode : Constant
Bit rate : 1 510 Kbps
Channel(s) : 6 channels
Channel positions : Front: L C R, Side: L R, LFE
Sampling rate : 48.0 KHz
Bit depth : 16 bits
Stream size : 1.63 GiB (20%)
Title : 5.1
Language : English
Скріншоти:



Золотий реліз (завантажене не впливає на рейтинг)
 Трекер:    Зареєстрований   

Завантажити / скачати фільм українською



відео для новачків



 Зареєстрований:   2012-05-15 10:43
 Розмір:   8.18 GB 
 Оцінка фільму:   9.4/10 (Голосів: 81)
   
Nikson 
VIP


З нами з: 12.01.10
Востаннє: 07.12.16
Повідомлень: 657

2012-05-15 11:11  
Зробив для себе 4,3 Гб 720 ріп даного фільму з цією озвучкою, англійською доріжкою та субтитрами. Якщо комусь необхідно можу викласти
ratbol 
Модератор HD


З нами з: 03.02.09
Востаннє: 07.12.16
Повідомлень: 1088

2012-05-15 11:37  
smak2001
Чи викладете 1080р?

smak2001 
VIP


З нами з: 06.09.09
Востаннє: 06.12.16
Повідомлень: 457

2012-05-15 11:39  
ratbol написано:
Чи викладете 1080р?

я, ні
Nikson написано:
Зробив для себе 720 ріп даного фільму
це не мій ріп, реліз повністю з уатім
ratbol 
Модератор HD


З нами з: 03.02.09
Востаннє: 07.12.16
Повідомлень: 1088

2012-05-15 11:40  
Є ще субтитри з R5.
xfsthe 
Оцифрування книг Гуртом
Оцифрування книг Гуртом


З нами з: 13.02.11
Востаннє: 07.12.16
Повідомлень: 279

2012-05-15 19:03  
було б добре, якби до цього релізу ще й субтитри Ukr/Eng прикрутити))
Dreamaxer 
Новенький


З нами з: 06.07.11
Востаннє: 21.08.16
Повідомлень: 5

2012-05-16 01:46  
Додайте англ. субтитри, та буде на висоті.
braveboy 
Відео Гуртом - команда HD
Відео Гуртом - команда HD


З нами з: 15.06.10
Востаннє: 29.10.16
Повідомлень: 958

2012-05-16 05:59  
виправ
smak2001 написано:
кодек: х.264
на

smak2001 написано:
Скріншоти:

скріншоти мають бути у форматі *png

Oкремо саби:
Pulp Fiction (1994) Ukr [R5].srt
Pulp Fiction (1994) Ukr [Ненормативна лексика].srt
Pulp Fiction (1994) Eng.srt

Dreamaxer 
Новенький


З нами з: 06.07.11
Востаннє: 21.08.16
Повідомлень: 5

2012-05-16 07:58  
braveboy
Oкремо саби:
Pulp Fiction (1994) Ukr [R5].srt
Pulp Fiction (1994) Ukr [Ненормативна лексика].srt
Pulp Fiction (1994) Eng.srt 

не можливо завантажити =(

Givi 
Модератор відео


З нами з: 25.02.08
Востаннє: 07.12.16
Повідомлень: 2862

2012-05-16 08:17  
braveboy написано:
скріншоти мають бути у форматі *png

Так, справді. Я втикнув мальохо Happy
smak2001, поміняйте, будь ласка.

smak2001 
VIP


З нами з: 06.09.09
Востаннє: 06.12.16
Повідомлень: 457

2012-05-16 10:49  
Givi написано:
поміняйте, будь ласка.

замінив,
саби не добавляв, бо на файлообміннику вони зникнуть через місяць-рік. якби хтось закинув на сервер(http://dorizhky.hurtom.com/index.php?folder=U1VCVElUTEVTIFVLUg==), тоді можна добавити буде в опис

braveboy 
Відео Гуртом - команда HD
Відео Гуртом - команда HD


З нами з: 15.06.10
Востаннє: 29.10.16
Повідомлень: 958

2012-05-16 15:25  
Dreamaxer написано:

braveboy
Oкремо саби:
Pulp Fiction (1994) Ukr [R5].srt
Pulp Fiction (1994) Ukr [Ненормативна лексика].srt
Pulp Fiction (1994) Eng.srt 

не можливо завантажити =(


залив на інший файлообмінник

natashelka 
VIP


З нами з: 23.05.10
Востаннє: 07.12.16
Повідомлень: 441

2012-05-18 11:04  
Один з моїх найулюбленіших фільмів. Ну ось нарешті і дочекалися! Дякую студії Омікрон та ecoist.com.ua за цю озвучку! 26.01.2013 на ictv йшов pulp fiction з озвучкою імовірно від ictv. Так я хочу сказати, що озвучка від Омікрон краще! Є у ній родзинка, на відміну від айсітівішної.
waldi-hurtom 
VIP


З нами з: 07.10.12
Востаннє: 07.12.16
Повідомлень: 611

2012-11-26 00:35  
Фільм фантастичний! Український переклад та озвучка - теж! Полінився звіряти з англійськими субтитрами, припускаю, що вийшло краще за оригінал, як Гаррі Поттер від Абабагаламаги. Дуже дякую! Взагалі, мені дивно, чому гуртівська оцінка цього фільму нижче за міжнародну. Зазвичай навпаки. 10 балів!
Potomok13 
Новенький


З нами з: 27.06.12
Востаннє: 04.08.16
Повідомлень: 4

2013-04-26 22:28  
Фільм неперевершений, дуже цікаві діалоги, персонажі, кожна історія майорить напруженими моментами, та головне - крапля ліричного філосовсього відступу вкінці, просто на 5, дуже круто. Браво Тарантіно! Браво!
Окремо хотів би подякувати за якісну українську озвучку.

mentosss28 
Новенький


З нами з: 04.09.14
Востаннє: 09.01.15
Повідомлень: 3

2014-09-05 08:59  
кіно з великоі букви, Тарантіно молоток
Wizard_Harry 
Свій


З нами з: 11.10.13
Востаннє: 07.12.16
Повідомлень: 111

2015-03-06 15:52  
Неперевершений фільм, дякую)
Maters 
VIP


З нами з: 27.03.12
Востаннє: 07.12.16
Повідомлень: 1162

2015-06-01 12:10  
Вкотре переконуюсь, що Тарантіно - дуже неординарна особистість))
Колись бачив цей фільм, але не дуже сподобав. Зараз переглянув ще раз. Блін, музика, акторська гра, діалоги, сама атмосфера фільму просто бомба))

Ua.bos_01 
VIP


З нами з: 22.06.15
Востаннє: 06.12.16
Повідомлень: 1291

2015-08-14 17:07  
Погоджуюсь із трьома вище вказаними коментарями. Тарантіно - молодець. Фільм просто супер. Окреме дякую за чудове озвучення фільму.
davos5 
Частий відвідувач


З нами з: 16.10.11
Востаннє: 04.12.16
Повідомлень: 29

2016-02-07 10:14  
Фільм, який викликає справжній шок в незалежності чи сподобається чи ні. Але в любому випадку все зроблено майстерно.
C4ebyrek 
Новенький


З нами з: 01.01.13
Востаннє: 07.12.16
Повідомлень: 18

2016-09-30 21:29  
Улюблений фільм, дуже дякую.
Ваш часовий пояс: GMT + 2 Години

Нова тема   Відповісти