Завантажити та скачати торренти українською


Диявол і Деніел Вебстер / Shortcut to Happiness / The Devil and Daniel Webster (2004) 1080p Ukr/Eng | Ukr/Eng

Нові коментарі

Нова тема   Відповісти
Автор Повідомлення
urij546724 
Відео Гуртом - фільмокрай
Відео Гуртом - фільмокрай


З нами з: 16.03.10
Востаннє: 09.12.16
Повідомлень: 5222

2012-05-13 17:33  
Диявол і Деніел Вебстер / Shortcut to Happiness / The Devil and Daniel Webster (2004) 1080p Ukr/Eng | Ukr/Eng

Альтернативні постери:


Слоган:
«The devil is in the details.»
«Диявол в деталях.»
«Чи важче протистояти дияволу, якщо диявол - жінка?...»


Жанр: комедія, драма, фентезі
Країна: США



Кіностудія / кінокомпанія: Yari Film Group (YFG), Cutting Edge Entertainment, El Dorado Pictures
Режисер: Алек Болдуін (Alec Baldwin)
Актори: Ентоні Хопкінс (Anthony Hopkins), Алек Болдуін (Alec Baldwin), Дженніфер Лав Хьюітт (Jennifer Love Hewitt), Кен Мартон (Ken Murton), Френк Сівер (Frank Sivero), Ден Ейкройд (Dan Aykroyd), Грегг Белло (Gregg Bello), Кім Кетролл (Kim Cattrall), Джон Севідж (John Savage)
Усі актори:
Ентоні Хопкінс (Anthony Hopkins), Алек Болдуін (Alec Baldwin), Дженніфер Лав Хьюітт (Jennifer Love Hewitt), Кен Мартон (Ken Murton), Френк Сівер (Frank Sivero), Ден Ейкройд (Dan Aykroyd), Грегг Белло (Gregg Bello), Кім Кетролл (Kim Cattrall), Джон Севідж (John Savage), Аль Палагонія (Al Palagonia), Беррі Міллер (Barry Miller), Джейсон Патрік (Jason Patric), Пол Торнтон (Paul Thornton), Кевін Олсон (Kevin Olson), Білл Корсейр (Bill Corsair), Джонатан Гентрі (Jonathon Gentry), Джон Хайнс (John Hines), Еліс Джонсон (Alice Johnson), Канеда Ноулз (Canedy Knowles), Карлі Моссман (Karlie Mossman), Луіс Педрон (Luis Pedron), Філіп Фонлантен (Philippe Vonlanthen), Марні Лустіг (Marni Lustig), Джулі Ламб (Julie Lamb), Кетерін О'Салліван (Katherine O'Sullivan), Боббі Каннавале (Bobby Cannavale), Джон Дорія (Jhon Doria), Майк Дойл (Mike Doyle), Монт Фарбер (Monte Farber), Даррел Хеммонд (Darrell Hammond), Білл Монтгомері (Bill Montgomery), Емі Полер (Amy Poehler), Френк Сеп (Frank Sepe), Келверт ДеФорест (Calvert DeForest), Мері Ештон (Mary Ashton), Білл Бойлен (Bill Boylan), Джейн ДеНобл (Jane DeNoble), Мерлін Добрин (Marilyn Dobrin), Стефані Елліот (Stephanie Elliot), Ренардо-Демейко Ґрейс (Renardo-Demeico Grays), Джон Хіллс (John Hills), Фредді Л. Робінсон мол. (Freddie L. Robinson Jr.), Девід С. Роєм ст. (David C. Roehm Sr.), Віктор Валез (Victor Valez), Крістін Джонс (Christine Jones)
Сюжет:
Нью-йоркський письменник-початківець укладає угоду з Дияволом, аби отримати літературний успіх і стати автором бестселерів. За це він має через 10 років віддати свою душу. Роки пролітають, як години, і незабаром процвітаючий письменник змушений молити про допомогу Деніела Вебстера, відомого адвоката й очільника відомої видавничої фірми в Нью-Йорку, щоб позбутися укладеної угоди. Результатом цього стане захоплююча битва інтелекттів і промов на судовому процесі між Дияволом та Деніелом Вебстером, ставкою на якому буде душа письменника.


Бюджет: 35 000 000 доларів
Збори у світі: 605 294 долари
Назва фільму у інших країнах
O Julgamento do Diabo
Бразилія / Португалія


Ördögi út a boldogsághoz
Угорщина


Atajo hacia la felicidad
Аргентина (Назва на TV)


Na skróty do szczescia
Польща


Sexy Devil
Франція (Назва на DVD)


Shortcut to Happiness
США (нова назва)


Shortcut to Happiness - Der Teufel steckt im Detail
Німеччина (Назва на DVD)


The Devil
США (робоча назва)


Дьявол и Дэниэл Уэбстер
Росія
Чи знаєте ви, що...
Ця картина, яка стала режисерським дебютом Алека Болдуіна була знята ще в 2004 році, проте випустили її в прокат тільки в 2007 році, оскільки протягом довгого часу не вдавалося знайти коштів для завершення роботи над стрічкою. У оригіналі фільм спочатку називався The Devil and Daniel Webster, але після того, як він був придбаний кінокомпанією Yari Film Group Releasing, був перейменований в Shortcut to Happiness, що можна перевести як «Посилання на щастя».
Media info
General
Count : 278
Count of stream of this kind : 1
Kind of stream : General
Kind of stream : General
Stream identifier : 0
Unique ID : 196411888227983468184681226045622951303
Unique ID : 196411888227983468184681226045622951303 (0x93C38DBF19602BAC9E8C02A8E8799D87)
Count of video streams : 1
Count of audio streams : 2
Count of text streams : 2
Count of menu streams : 1
Video_Format_List : AVC
Video_Format_WithHint_List : AVC
Codecs Video : AVC
Video_Language_List : French
Audio_Format_List : /
Audio_Format_WithHint_List : /
Audio codecs : /
Audio_Language_List : Ukrainian / English
Text_Format_List : UTF-8 / UTF-8
Text_Format_WithHint_List : UTF-8 / UTF-8
Text codecs : UTF-8 / UTF-8
Text_Language_List : Ukrainian / English
Complete name : J:\1\The Devil and Daniel Webster (2004) [ukr.EnterFilm_eng_AC3_5.1, sub] 1080p [Hurtom] by urij546724.mkv
Folder name : J:\1
File name : The Devil and Daniel Webster (2004) [ukr.EnterFilm_eng_AC3_5.1, sub] 1080p [Hurtom] by urij546724
File extension : mkv
Format : Matroska
Format : Matroska
Format/Url : http://packs.matroska.org/
Format/Extensions usually used : mkv mk3d mka mks
Commercial name : Matroska
Format version : Version 2
Codec : Matroska
Codec : Matroska
Codec/Url : http://packs.matroska.org/
Codec/Extensions usually used : mkv mk3d mka mks
File size : 8540213482
File size : 7.95 GiB
File size : 8 GiB
File size : 8.0 GiB
File size : 7.95 GiB
File size : 7.954 GiB
Duration : 6108519
Duration : 1h 41mn
Duration : 1h 41mn 48s 519ms
Duration : 1h 41mn
Duration : 01:41:48.519
Overall bit rate : 11184659
Overall bit rate : 11.2 Mbps
Stream size : 169945008
Stream size : 162 MiB (2%)
Stream size : 162 MiB
Stream size : 162 MiB
Stream size : 162 MiB
Stream size : 162.1 MiB
Stream size : 162 MiB (2%)
Proportion of this stream : 0.01990
Title : The Devil and Daniel Webster (2004) [ukr.EnterFilm_eng_AC3_5.1, sub] 1080p [Hurtom] by urij546724
Movie name : The Devil and Daniel Webster (2004) [ukr.EnterFilm_eng_AC3_5.1, sub] 1080p [Hurtom] by urij546724
Encoded date : UTC 2012-05-13 18:49:10
File creation date : UTC 2012-05-13 18:49:10.593
File creation date (local) : 2012-05-13 21:49:10.593
File last modification date : UTC 2012-05-13 19:39:11.109
File last modification date (local) : 2012-05-13 22:39:11.109
Writing application : mkvmerge v2.9.7 ('Tenderness') built on Jul 1 2009 18:43:35
Writing library : libebml v0.7.7 + libmatroska v0.8.1
Writing library : libebml v0.7.7 + libmatroska v0.8.1

Video
Count : 201
Count of stream of this kind : 1
Kind of stream : Video
Kind of stream : Video
Stream identifier : 0
ID : 1
ID : 1
Unique ID : 4214533255
Format : AVC
Format/Info : Advanced Video Codec
Format/Url : http://developers.videolan.org/.html
Commercial name : AVC
Format profile : [email protected]
Format settings : CABAC / 4 Ref Frames
Format settings, CABAC : Yes
Format settings, CABAC : Yes
Format settings, ReFrames : 4
Format settings, ReFrames : 4 frames
Internet media type : video/H264
Codec ID : V_MPEG4/ISO/AVC
Codec ID/Url : http://ffdshow-tryout.sourceforge.net/
Codec : V_MPEG4/ISO/AVC
Codec : AVC
Codec/Family : AVC
Codec/Info : Advanced Video Codec
Codec/Url : http://ffdshow-tryout.sourceforge.net/
Codec profile : [email protected]
Codec settings : CABAC / 4 Ref Frames
Codec settings, CABAC : Yes
Codec_Settings_RefFrames : 4
Duration : 6108525
Duration : 1h 41mn
Duration : 1h 41mn 48s 525ms
Duration : 1h 41mn
Duration : 01:41:48.525
Bit rate : 8170000
Bit rate : 8 170 Kbps
Width : 1920
Width : 1 920 pixels
Height : 1072
Height : 1 072 pixels
Pixel aspect ratio : 1.000
Display aspect ratio : 1.791
Display aspect ratio : 16:9
Frame rate : 23.976
Frame rate : 23.976 fps
Frame count : 146458
Resolution : 8
Resolution : 8 bits
Colorimetry : 4:2:0
Color space : YUV
Chroma subsampling : 4:2:0
Bit depth : 8
Bit depth : 8 bits
Scan type : Progressive
Scan type : Progressive
Interlacement : PPF
Interlacement : Progressive
Bits/(Pixel*Frame) : 0.166
Delay : 0
Delay : 00:00:00.000
Delay, origin : Container
Delay, origin : Container
Stream size : 6064684334
Stream size : 5.65 GiB (71%)
Stream size : 6 GiB
Stream size : 5.6 GiB
Stream size : 5.65 GiB
Stream size : 5.648 GiB
Stream size : 5.65 GiB (71%)
Proportion of this stream : 0.71013
Title : The Devil and Daniel Webster (2004) [ukr.EnterFilm_eng_AC3_5.1, sub] 1080p [Hurtom] by urij546724
Writing library : - core 119 r2106 07efeb4
Writing library : core 119 r2106 07efeb4
Writing library/Name :
Writing library/Version : core 119 r2106 07efeb4
Encoding settings : cabac=1 / ref=4 / deblock=1:0:0 / analyse=0x3:0x133 / me=umh / subme=7 / psy=1 / psy_rd=1.00:0.00 / mixed_ref=1 / me_range=16 / chroma_me=1 / trellis=1 / 8x8dct=1 / cqm=0 / deadzone=21,11 / fast_pskip=0 / chroma_qp_offset=-2 / threads=12 / sliced_threads=0 / nr=0 / decimate=1 / interlaced=0 / bluray_compat=0 / constrained_intra=0 / bframes=3 / b_pyramid=2 / b_adapt=2 / b_bias=0 / direct=3 / weightb=1 / open_gop=0 / weightp=2 / keyint=250 / keyint_min=23 / scenecut=40 / intra_refresh=0 / rc_lookahead=60 / rc=2pass / mbtree=1 / bitrate=8170 / ratetol=1.0 / qcomp=0.60 / qpmin=10 / qpmax=51 / qpstep=4 / cplxblur=20.0 / qblur=0.5 / ip_ratio=1.40 / aq=1:1.00
Language : fr
Language : French
Language : French
Language : fr
Language : fra
Language : fr

Audio #1
Count : 169
Count of stream of this kind : 2
Kind of stream : Audio
Kind of stream : Audio
Stream identifier : 0
Stream identifier : 1
ID : 2
ID : 2
Unique ID : 347286409
Format :
Format/Info : Digital Theater Systems
Commercial name :
Codec ID : A_DTS
Codec :
Codec :
Codec/Family :
Duration : 6108519
Duration : 1h 41mn
Duration : 1h 41mn 48s 519ms
Duration : 1h 41mn
Duration : 01:41:48.519
Bit rate mode : CBR
Bit rate mode : Constant
Bit rate : 1509750
Bit rate : 1 510 Kbps
Channel(s) : 6
Channel(s) : 6 channels
Channel positions : Front: L C R, Side: L R, LFE
Channel positions : 3/2/0.1
Sampling rate : 48000
Sampling rate : 48.0 KHz
Samples count : 293208912
Resolution : 24
Resolution : 24 bits
Bit depth : 24
Bit depth : 24 bits
Compression mode : Lossy
Compression mode : Lossy
Delay : 0
Delay : 00:00:00.000
Delay, origin : Container
Delay, origin : Container
Delay relative to video : 0
Video0 delay : 0
Stream size : 1152792070
Stream size : 1.07 GiB (13%)
Stream size : 1 GiB
Stream size : 1.1 GiB
Stream size : 1.07 GiB
Stream size : 1.074 GiB
Stream size : 1.07 GiB (13%)
Proportion of this stream : 0.13498
Title : Українська доріжка
Language : uk
Language : Ukrainian
Language : Ukrainian
Language : uk
Language : ukr
Language : uk

Audio #2
Count : 169
Count of stream of this kind : 2
Kind of stream : Audio
Kind of stream : Audio
Stream identifier : 1
Stream identifier : 2
ID : 3
ID : 3
Unique ID : 4158418101
Format :
Format/Info : Digital Theater Systems
Commercial name :
Codec ID : A_DTS
Codec :
Codec :
Codec/Family :
Duration : 6108519
Duration : 1h 41mn
Duration : 1h 41mn 48s 519ms
Duration : 1h 41mn
Duration : 01:41:48.519
Bit rate mode : CBR
Bit rate mode : Constant
Bit rate : 1509750
Bit rate : 1 510 Kbps
Channel(s) : 6
Channel(s) : 6 channels
Channel positions : Front: L C R, Side: L R, LFE
Channel positions : 3/2/0.1
Sampling rate : 48000
Sampling rate : 48.0 KHz
Samples count : 293208912
Resolution : 24
Resolution : 24 bits
Bit depth : 24
Bit depth : 24 bits
Compression mode : Lossy
Compression mode : Lossy
Delay : 11
Delay : 11ms
Delay : 11ms
Delay : 11ms
Delay : 00:00:00.011
Delay, origin : Container
Delay, origin : Container
Delay relative to video : 11
Delay relative to video : 11ms
Delay relative to video : 11ms
Delay relative to video : 11ms
Delay relative to video : 00:00:00.011
Video0 delay : 11
Video0 delay : 11ms
Video0 delay : 11ms
Video0 delay : 11ms
Video0 delay : 00:00:00.011
Stream size : 1152792070
Stream size : 1.07 GiB (13%)
Stream size : 1 GiB
Stream size : 1.1 GiB
Stream size : 1.07 GiB
Stream size : 1.074 GiB
Stream size : 1.07 GiB (13%)
Proportion of this stream : 0.13498
Title : Англійська доріжка
Language : en
Language : English
Language : English
Language : en
Language : eng
Language : en

Text #1
Count : 135
Count of stream of this kind : 2
Kind of stream : Text
Kind of stream : Text
Stream identifier : 0
Stream identifier : 1
ID : 4
ID : 4
Unique ID : 2379517569
Format : UTF-8
Commercial name : UTF-8
Codec ID : S_TEXT/UTF8
Codec ID/Info : UTF-8 Plain Text
Codec : S_TEXT/UTF8
Codec : UTF-8
Codec/Info : UTF-8 Plain Text
Title : Українські субтитри
Language : uk
Language : Ukrainian
Language : Ukrainian
Language : uk
Language : ukr
Language : uk

Text #2
Count : 135
Count of stream of this kind : 2
Kind of stream : Text
Kind of stream : Text
Stream identifier : 1
Stream identifier : 2
ID : 5
ID : 5
Unique ID : 2137348797
Format : UTF-8
Commercial name : UTF-8
Codec ID : S_TEXT/UTF8
Codec ID/Info : UTF-8 Plain Text
Codec : S_TEXT/UTF8
Codec : UTF-8
Codec/Info : UTF-8 Plain Text
Title : Англійські субтитри
Language : en
Language : English
Language : English
Language : en
Language : eng
Language : en

Menu
Count : 84
Count of stream of this kind : 1
Kind of stream : Menu
Kind of stream : Menu
Stream identifier : 0
Chapters_Pos_Begin : 72
Chapters_Pos_End : 84
00:00:00.000 : en:00:00:00.000
00:09:56.012 : en:00:09:56.012
00:19:23.287 : en:00:19:23.287
00:30:06.471 : en:00:30:06.471
00:37:57.358 : en:00:37:57.358
00:50:06.003 : en:00:50:06.003
00:57:13.430 : en:00:57:13.430
01:07:10.235 : en:01:07:10.235
01:15:01.288 : en:01:15:01.288
01:24:56.466 : en:01:24:56.466
01:30:14.909 : en:01:30:14.909
01:38:03.211 : en:01:38:03.211
Тривалість: 01:41:48
Якість: 1080p
Відео:
кодек:
розмір кадру: 1920 х 1072
бітрейт: ~ 8170 кб/с
частота кадрів: 23.976 к/с (fps)

Аудіо #1:
мова: українська
переклад: багатоголосий закадровий
кодек: 5.1
бітрейт: 1536 кб/с
запис звуку з каналу:

Аудіо #2:
мова: англійська
переклад: оригінал
кодек: 5.1
бітрейт: 1536 кб/с

Субтитри #1:
мова: українська
тип: програмні (м'які)
формат: *.srt
переклад: з російської urij546724

Субтитри #2:
мова: англійська
тип: програмні (м'які)
формат: *.srt

Скріншоти:

Трейлер:

Семпл
Джерело 1_________Джерело 2_________Джерело 3_________Джерело 4
У випадку, якщо з усіх джерел семпл видалять, прохання повідомити мені у ПРИВАТ


Подяка:

1. Пану dvorsky за запис звуку з ТБ.


Реліз створено: &

Особиста оцінка: Ще не дивився.

Реліз не зберігатиму. Видалю після появи кількох сідерів.


Срібний реліз (на рейтинг впливає 50% завантаженого)
 Трекер:    Зареєстрований   

Завантажити / скачати фільм українською



відео для новачків



 Зареєстрований:   2012-05-14 15:26
 Розмір:   7.95 GB 
 Оцінка фільму:   7.8/10 (Голосів: 12)
 Прохання залишати коментарі і не тікати з роздачі.
   
waldi-hurtom 
VIP


З нами з: 07.10.12
Востаннє: 09.12.16
Повідомлень: 613

2012-12-29 18:56  
Агов, народе! Станьте хто-небудь на роздачу! Вже більше тижня чекаю...
waldi-hurtom 
VIP


З нами з: 07.10.12
Востаннє: 09.12.16
Повідомлень: 613

2013-01-01 20:06  
Нарешті, дочекався! Недарма чекав, фільм цікавий. Колись по ТБ шматочки бачив.
Ваш часовий пояс: GMT + 2 Години

Нова тема   Відповісти