Завантажити та скачати торренти українською


Zapaska - translitom (EP) (2011) [FLAC] | Alternative

Нові коментарі

Нова тема   Відповісти
Автор Повідомлення
ssTAss 
Модератор музики


З нами з: 05.07.08
Востаннє: 09.12.16
Повідомлень: 10948

2012-05-13 14:33  
Zapaska - translitom (EP) (2011) [FLAC] | Alternative

Zapaska - translitom (EP) (2011) [FLAC] | Alternative


Стиль: Alternative
Країна, місто: Україна, Київ
Сайти:

Видавець: Наш Формат, МА
Виконавці:
Яна Шпачинська (лідерка гр. "ЧеЧе") - вокал, гітара, луп-стейшн, ефекти
Павло Нечитайло (лідер гр. "Пропала Грамота") - вокал, рабаба, гармоніка, ефекти
Пісні:
    1. cosmo tour
    2. літак
    3. я радію сам
    4. waitress
    5. маша
    6. niema ryby
log
Exact Audio Copy V1.0 beta 3 from 29. August 2011

Отчёт EAC об извлечении, выполненном 12. апреля 2012, 12:17

Zapaska / Translitom

Дисковод: HL-DT-STDVDRAM GH22NS40 Adapter: 2 ID: 0

Режим чтения : Достоверность
Использование точного потока : Да
Отключение кэша аудио : Да
Использование указателей C2 : Нет

Коррекция смещения при чтении : 667
Способность читать области Lead-in и Lead-out : Нет
Заполнение пропущенных сэмплов тишиной : Да
Удаление блоков с тишиной в начале и конце : Нет
При вычислениях CRC использовались нулевые сэмплы : Да
Интерфейс : Встроенный Win32-интерфейс для Win NT/2000
Обработка зазоров : Добавлено к предыдущему треку

Выходной формат : Пользовательский кодировщик
Выбранный битрейт : 128 kBit/s
Качество : Высокий
Добавление ID3-тега : Нет
Утилита сжатия : C:\Program Files\Exact Audio Copy\FLAC\FLAC.EXE
Дополнительные параметры : -V -8 -T "Genre=%genre%" -T "Artist=%artist%" -T "Title=%title%" -T "Album=%albumtitle%" -T "Date=%year%" -T "Tracknumber=%tracknr%" -T "Comment=%comment%" %source%

TOC извлечённого CD

Трек | Старт | Длительность | Начальный сектор | Конечный сектор
---------------------------------------------------------------------
1 | 0:00.00 | 3:34.53 | 0 | 16102
2 | 3:34.53 | 3:43.58 | 16103 | 32885
3 | 7:18.36 | 3:25.47 | 32886 | 48307
4 | 10:44.08 | 2:01.60 | 48308 | 57442
5 | 12:45.68 | 2:45.47 | 57443 | 69864
6 | 15:31.40 | 4:49.27 | 69865 | 91566

Трек 1

Имя файла E:\Temp\Новая папка (4)\FLAC\zapaska\01. Cosmo tour.wav

Длина предзазора 0:00:02.00

Пиковый уровень 100.0 %
Скорость извлечения 1.0 X
Качество трека 100.0 %
CRC теста 16B85496
CRC копии 16B85496
Копирование... OK

Трек 2

Имя файла E:\Temp\Новая папка (4)\FLAC\zapaska\02. Літак.wav

Длина предзазора 0:00:02.00

Пиковый уровень 100.0 %
Скорость извлечения 1.0 X
Качество трека 99.9 %
CRC теста F54865BA
CRC копии F54865BA
Копирование... OK

Трек 3

Имя файла E:\Temp\Новая папка (4)\FLAC\zapaska\03. Я радію сам.wav

Длина предзазора 0:00:02.00

Пиковый уровень 100.0 %
Скорость извлечения 1.2 X
Качество трека 100.0 %
CRC теста D8EE1891
CRC копии D8EE1891
Копирование... OK

Трек 4

Имя файла E:\Temp\Новая папка (4)\FLAC\zapaska\04. Waitress.wav

Длина предзазора 0:00:02.00

Пиковый уровень 100.0 %
Скорость извлечения 0.9 X
Качество трека 99.9 %
CRC теста 5458D996
CRC копии 5458D996
Копирование... OK

Трек 5

Имя файла E:\Temp\Новая папка (4)\FLAC\zapaska\05. Маша.wav

Длина предзазора 0:00:02.00

Пиковый уровень 100.0 %
Скорость извлечения 1.2 X
Качество трека 100.0 %
CRC теста 5F471A6F
CRC копии 5F471A6F
Копирование... OK

Трек 6

Имя файла E:\Temp\Новая папка (4)\FLAC\zapaska\06. Niema ryby.wav

Длина предзазора 0:00:02.00

Пиковый уровень 100.0 %
Скорость извлечения 1.5 X
Качество трека 100.0 %
CRC теста 82620D6E
CRC копии 82620D6E
Копирование... OK

Ошибок не произошло

Конец отчёта

==== Контрольная сумма отчёта D0D11C7BF78A6D9129E7FBCEEED01C14A666E44291DCE99347E1C9E6A53971BF ====
audiochecker
AUDIOCHECKER v2.0 beta (build 457) - by Dester - [email protected]
~~~~~~~~~~~~~~~~~~~~~~~~~~~~~~~~~~
-=== DO NOT EDIT THIS FILE! ===-

Path: ...\2011 - Translitom

1 -=- 01. Cosmo tour.flac -=- CDDA (100%)
2 -=- 02. Літак.flac -=- CDDA (100%)
3 -=- 03. Я радію сам.flac -=- CDDA (100%)
4 -=- 04. Waitress.flac -=- CDDA (100%)
5 -=- 05. Маша.flac -=- CDDA (100%)
6 -=- 06. Niema ryby.flac -=- CDDA (99%)

Summary 99,83% CDDA

245366020
Тривалість: 00:20:21
Мова: українська (1-3,5), англійська (4), польська (6)
Аудіо-кодек: FLAC
Бітрейт: 785-961 кб/с
Джерело: інший трекер
Додаткова інформація:
Zapaska – цікавий, затишно-енергійний пост-роковий дует, що обома парами ніг міцно стоїть на засадах мінімалізму. Власне, ця музика істотно відрізняється від того, що Яна Шпачинська і Павло Нечитайло роблять у своїх гуртах (ЧеЧе та Пропала Грамота відповідно). До того ж, Zapaska – проект сімейний, і не факт, що цей факт не дається взнаки в усьому, що стосується якості озвучених фантазій. Принаймні, Яна і Павло чують одне одного добре – а це набуває особливої ваги в умовах, коли виражальних засобів небагато. У цьому альбомі, здається, з живого інструментарію задіяні лише гітара, гармошка та губна гармоніка – ну і архів лупів на додачу. Тим не менш, пісні вирізняються об’ємністю – у них сполучаються спокійна, майже відсторонена атмосфера і якийсь підспудний драйв, внутрішня пружина. Плюс не надто пересічні тексти – чотирма з половиною, до речі, мовами – і специфічний шарм, притаманний голосам обох учасників. На виході – маємо альбом не на кожен, мабуть, день. Але, якщо Ви вловите його хвилю – він світитиметься, як тиха перлина...


Якщо Ви справді бажаєте підтримати українське - після прослуховування, якщо музика вам сподобалась,
придбайте ліцензійний диск.
Підтримаймо вітчизняних виконавців!


Срібний реліз (на рейтинг впливає 50% завантаженого)
 Трекер:    Зареєстрований   

Завантажити / скачати українську музику



відео для новачків



 Зареєстрований:   2012-05-13 14:33
 Розмір:   125 MB 
 Оцінка музики:   6.4/10 (Голосів: 10)
   
ssTAss 
Модератор музики


З нами з: 05.07.08
Востаннє: 09.12.16
Повідомлень: 10948

2012-05-13 14:35  
Ваш часовий пояс: GMT + 2 Години

Нова тема   Відповісти