Завантажити та скачати торренти українською


VA - Етно-фестиваль 2005 р. "Країна мрій" (2CD) (2005) [APE] | Ethno/Folk

Нові коментарі

Нова тема   Відповісти
Останній раз роздавалося natashelka (2016-12-01)
Автор Повідомлення
ssTAss 
Модератор музики


З нами з: 05.07.08
Востаннє: 03.12.16
Повідомлень: 10930

2012-05-12 20:51  
VA - Етно-фестиваль 2005 р. "Країна мрій" (2CD) (2005) [APE] | Ethno/Folk

VA - Етно-фестиваль 2005 р. "Країна мрій" (2CD) (2005) [APE] | Ethno/Folk


Стиль: Ethno Folk
Країна, місто: Україна, Київ
Сайти: Офіційний сайт
Видавець: Країна мрій
Виконавці:
ВВ, ТАРТАК, МАНДРИ, ГАЙДАМАКИ, RED CARDELL, Севара Назархан та фольклорні гурти з України, Грузії, Угорщини, Молдови, Білорусі.
Пісні:
    CD 1 Традицiйна народна музика


    1. Гуртоправці
    2. Серпанок
    3. Буття
    4. Дике Поле
    5. Кирим
    6. Божичі
    7. Басіані
    8. Ештенас
    9. Болгарський гурт
    10. Вольніца
    11. Володар
    12. Тарас Компаніченко та Гуртоправці
    13. Автентичний гурт с. Семенівка
    14. Весільні Музики

    Тривалість: 00:51:43
    Мова: українська, російська (2), відсутня (3,8,9,14), кримськотатарська (5), грузинська (7),
    log
    Exact Audio Copy V0.99 prebeta 4 from 23. January 2008

    Звіт EAC про видобування, котре виконане 10. березня 2009, 22:40

    Various / Країна Мрій - 2005

    Дисковод: _NEC DVD_RW ND-4550A Adapter: 0 ID: 1

    Режим читання : Точний
    Використати точний потік : Так
    Вимкнути аудіо кеш : Так
    Застосувати мітки C2 : Ні

    Комбіноване зміщення читання/запису : 0
    Екстрачитання областей Lead-in і Lead-out : Ні
    Заповнення пропущених семплів тишею : Так
    Видалення блоків з тишею на початку і кінці : Ні
    При вирахуванні CRC використовувались нульові семпли : Ні
    Використаний інтерфейс : 'Рідний' Win32-інтерфейс для Win NT/2000

    Застосований вихідний формат : Внутрішні WAV-операції
    Формат семпла : 44.100 Гц; 16 біт; стерео

    TOC видобутого CD

    Трек | Старт | Довжина | Початковий сектор | Кінцевий сектор
    ------------------------------------------------------------------
    1 | 0:00.00 | 4:06.03 | 0 | 18452
    2 | 4:06.03 | 2:09.39 | 18453 | 28166
    3 | 6:15.42 | 2:13.66 | 28167 | 38207
    4 | 8:29.33 | 4:14.33 | 38208 | 57290
    5 | 12:43.66 | 5:49.73 | 57291 | 83538
    6 | 18:33.64 | 1:54.27 | 83539 | 92115
    7 | 20:28.16 | 2:25.28 | 92116 | 103018
    8 | 22:53.44 | 3:29.64 | 103019 | 118757
    9 | 26:23.33 | 4:53.22 | 118758 | 140754
    10 | 31:16.55 | 2:41.54 | 140755 | 152883
    11 | 33:58.34 | 1:42.50 | 152884 | 160583
    12 | 35:41.09 | 6:33.34 | 160584 | 190092
    13 | 42:14.43 | 2:47.17 | 190093 | 202634
    14 | 45:01.60 | 6:41.05 | 202635 | 232714

    Статус діапазону і помилки

    Обраний діапазон

    Ім'я файлу D:\Various - Країна Мрій - 2005.wav

    Піковий рівень 99.5 %
    Якість діапазону 100.0 %
    CRC копії E1F668B3
    Копіювання... OK

    Помилки не траплялися

    Кінець звіту
    fooCDtect
    fooCDtect - foobar2000 + auCDtect, baralgin.

    auCDtect: CD records authenticity detector, version 0.8.2
    Copyright (c) 2004 Oleg Berngardt. All rights reserved.
    Copyright (c) 2004 Alexander Djourik. All rights reserved.

    mode: 0

    =======================================================
    Track: 01 - Гуртоправці
    Quality: CDDA, 100%
    =======================================================
    Track: 02 - Серпанок
    Quality: CDDA, 100%
    =======================================================
    Track: 03 - Буття
    Quality: CDDA, 100%
    =======================================================
    Track: 04 - Дике поле
    Quality: CDDA, 100%
    =======================================================
    Track: 05 - Кирим
    Quality: CDDA, 100%
    =======================================================
    Track: 06 - Божичі
    Quality: CDDA, 100%
    =======================================================
    Track: 07 - Басіані
    Quality: CDDA, 100%
    =======================================================
    Track: 08 - Ештенас
    Quality: CDDA, 100%
    =======================================================
    Track: 09 - Болгарський гурт
    Quality: CDDA, 99%
    =======================================================
    Track: 10 - Вольніца
    Quality: CDDA, 100%
    =======================================================
    Track: 11 - Володар
    Quality: CDDA, 99%
    =======================================================
    Track: 12 - Тарас Компаніченко та Гуртоправці
    Quality: CDDA, 100%
    =======================================================
    Track: 13 - Автентичний гурт
    Quality: CDDA, 100%
    =======================================================
    Track: 14 - Весільні музики
    Quality: CDDA, 100%
    =======================================================
    CD 2 Етно-рок


    01. Гайдамаки
    02. Red Cardell
    03. Севара Назархан
    04. Очеретяний Кіт
    05. Тригон
    06. UR’IA
    07. Гуцул Каліпсо
    08. Роман Гриньків
    09. Мандри
    10. Тартак
    11. Воплі Відоплясова

    Тривалість: 00:49:25
    Мова: українська, французька (2), узбецька (3), молдавська (5), білоруська (6), відсутня (8)
    log
    Exact Audio Copy V0.99 prebeta 4 from 23. January 2008

    Звіт EAC про видобування, котре виконане 10. березня 2009, 22:55

    Various / Країна Мрій - 2005(ч.2)

    Дисковод: _NEC DVD_RW ND-4550A Adapter: 0 ID: 1

    Режим читання : Точний
    Використати точний потік : Так
    Вимкнути аудіо кеш : Так
    Застосувати мітки C2 : Ні

    Комбіноване зміщення читання/запису : 0
    Екстрачитання областей Lead-in і Lead-out : Ні
    Заповнення пропущених семплів тишею : Так
    Видалення блоків з тишею на початку і кінці : Ні
    При вирахуванні CRC використовувались нульові семпли : Ні
    Використаний інтерфейс : 'Рідний' Win32-інтерфейс для Win NT/2000

    Застосований вихідний формат : Внутрішні WAV-операції
    Формат семпла : 44.100 Гц; 16 біт; стерео

    TOC видобутого CD

    Трек | Старт | Довжина | Початковий сектор | Кінцевий сектор
    ------------------------------------------------------------------
    1 | 0:00.00 | 4:54.00 | 0 | 22049
    2 | 4:54.00 | 3:50.17 | 22050 | 39316
    3 | 8:44.17 | 4:57.21 | 39317 | 61612
    4 | 13:41.38 | 5:20.58 | 61613 | 85670
    5 | 19:02.21 | 6:20.51 | 85671 | 114221
    6 | 25:22.72 | 4:54.22 | 114222 | 136293
    7 | 30:17.19 | 3:46.30 | 136294 | 153273
    8 | 34:03.49 | 4:21.19 | 153274 | 172867
    9 | 38:24.68 | 3:26.59 | 172868 | 188376
    10 | 41:51.52 | 4:18.00 | 188377 | 207726
    11 | 46:09.52 | 3:15.38 | 207727 | 222389

    Статус діапазону і помилки

    Обраний діапазон

    Ім'я файлу D:\Країна Мрій - 2005(ч.2).wav

    Піковий рівень 100.0 %
    Якість діапазону 100.0 %
    CRC копії AFC5CE69
    Копіювання... OK

    Помилки не траплялися

    Кінець звіту
    fooCDtect
    fooCDtect - foobar2000 + auCDtect, baralgin.

    auCDtect: CD records authenticity detector, version 0.8.2
    Copyright (c) 2004 Oleg Berngardt. All rights reserved.
    Copyright (c) 2004 Alexander Djourik. All rights reserved.

    mode: 0

    =======================================================
    Track: 01 - Гайдамаки
    Quality: CDDA, 100%
    =======================================================
    Track: 02 - Red Cardell
    Quality: CDDA, 100%
    =======================================================
    Track: 03 - Sevara Nazarkhan
    Quality: CDDA, 100%
    =======================================================
    Track: 04 - Очеретяний кіт
    Quality: CDDA, 100%
    =======================================================
    Track: 05 - Trigon
    Quality: CDDA, 100%
    =======================================================
    Track: 06 - UR'IA
    Quality: CDDA, 100%
    =======================================================
    Track: 07 - Гуцул Каліпсо
    Quality: CDDA, 100%
    =======================================================
    Track: 08 - Роман Гриньків
    Quality: CDDA, 100%
    =======================================================
    Track: 09 - Мандри
    Quality: CDDA, 100%
    =======================================================
    Track: 10 - Тартак
    Quality: CDDA, 100%
    =======================================================
    Track: 11 - Воплі Відоплясова
    Quality: CDDA, 100%
    =======================================================

Тривалість: 01:41:08
Мова: українська, російська, кримськотатарська, грузинська, французька, узбецька, молдавська, білоруська, відсутня
Аудіо-кодек: APE
Бітрейт: 900-998 кб/с
Джерело: інтернет
Додаткова інформація:
Програма другого фестивалю "Країна Мрій". Цього разу серед учасників ВВ, ТАРТАК, МАНДРИ, ГАЙДАМАКИ, французи RED CARDELL, світова зірка world music Севара Назархан та фольклорні гурти з України, Грузії, Угорщини, Молдови, Білорусі. Презентаційне видання.


Якщо Ви справді бажаєте підтримати українське - після прослуховування, якщо музика вам сподобалась,
придбайте ліцензійний диск.
Підтримаймо вітчизняних виконавців!


Срібний реліз (на рейтинг впливає 50% завантаженого)
 Трекер:    Зареєстрований   

Завантажити / скачати українську музику



відео для новачків



 Зареєстрований:   2012-05-12 20:51
 Розмір:   687 MB 
 Оцінка музики:   4.6/10 (Голосів: 5)
   
Ваш часовий пояс: GMT + 2 Години

Нова тема   Відповісти