Завантажити та скачати торренти українською


VA - Етно-фестиваль 2004 р. "Країна мрій" (2CD) (2004) [APE] | Ethno/Folk

Нові коментарі

Нова тема   Відповісти
Останній раз роздавалося ssTAss (2016-11-27)
Автор Повідомлення
ssTAss 
Модератор музики


З нами з: 05.07.08
Востаннє: 03.12.16
Повідомлень: 10932

2012-05-12 17:00  
VA - Етно-фестиваль 2004 р. "Країна мрій" (2CD) (2004) [APE] | Ethno/Folk

VA - Етно-фестиваль 2004 р. "Країна мрій" (2CD) (2004) [APE] | Ethno/Folk


Стиль: Ethno Folk
Країна, місто: Україна, Київ
Сайти: Офіційний сайт
Видавець: Країна мрій
Виконавці:
БОЖИЧІ, ГУРТОПРАВЦІ, ГУЛЯЙГОРОД, ЗДОБ ШІ ЗДУБ, МАНДРИ, Енвер Ізмайлов, Олег Скрипка & ЛЕ ГРАНД ОРКЕСТР та інші.
Пісні:
    CD 1 Традицiйна народна музика


    01. Древо - Калина-малина, чом не процвітаєш?
    02. Гуртоправці - Бабський казачок
    03. З Дрогі - Розкопайте, хлопці, греблю
    04. Космацька Капела
    05. Intakas
    06. Серпанок - Ой ти Петре, Петре
    07. Марій Памаш
    08. Божичі - Котилася, ой, ясна зоря з неба
    09. Надобридень - Бойківська латканка
    10. Троян - Розлука-розлученька
    11. Муравський Шлях - Вітер з поля, хвиля з моря
    12. Ладовиці - Ой, Іване, Іваночку
    13. Буття - Гречаники
    14. Гуляйгород - Василиха

    Тривалість: 00:44:34
    Мова: українська, відсутня (4), литовська (5), мова республіки Марій Ел (7),
    log
    Exact Audio Copy V0.99 prebeta 4 from 23. January 2008

    Звіт EAC про видобування, котре виконане 9. березня 2009, 12:20

    Various / Країна Мрій(ч.1)

    Дисковод: _NEC DVD_RW ND-4550A Adapter: 0 ID: 1

    Режим читання : Точний
    Використати точний потік : Так
    Вимкнути аудіо кеш : Так
    Застосувати мітки C2 : Ні

    Комбіноване зміщення читання/запису : 0
    Екстрачитання областей Lead-in і Lead-out : Ні
    Заповнення пропущених семплів тишею : Так
    Видалення блоків з тишею на початку і кінці : Ні
    При вирахуванні CRC використовувались нульові семпли : Ні
    Використаний інтерфейс : 'Рідний' Win32-інтерфейс для Win NT/2000

    Застосований вихідний формат : Внутрішні WAV-операції
    Формат семпла : 44.100 Гц; 16 біт; стерео

    TOC видобутого CD

    Трек | Старт | Довжина | Початковий сектор | Кінцевий сектор
    ------------------------------------------------------------------
    1 | 0:00.00 | 1:48.23 | 0 | 8122
    2 | 1:48.23 | 3:31.08 | 8123 | 23955
    3 | 5:19.31 | 2:15.29 | 23956 | 34109
    4 | 7:34.60 | 5:21.11 | 34110 | 58195
    5 | 12:55.71 | 1:31.38 | 58196 | 65058
    6 | 14:27.34 | 1:41.67 | 65059 | 72700
    7 | 16:09.26 | 2:16.73 | 72701 | 82973
    8 | 18:26.24 | 3:00.04 | 82974 | 96477
    9 | 21:26.28 | 8:46.39 | 96478 | 135966
    10 | 30:12.67 | 2:20.37 | 135967 | 146503
    11 | 32:33.29 | 3:54.45 | 146504 | 164098
    12 | 36:27.74 | 2:36.58 | 164099 | 175856
    13 | 39:04.57 | 3:05.49 | 175857 | 189780
    14 | 42:10.31 | 2:23.17 | 189781 | 200522

    Статус діапазону і помилки

    Обраний діапазон

    Ім'я файлу D:\Various - Країна Мрій(ч.1).wav

    Піковий рівень 94.4 %
    Якість діапазону 100.0 %
    CRC копії D3BE7175
    Копіювання... OK

    Помилки не траплялися

    Кінець звіту
    fooCDtect
    fooCDtect - foobar2000 + auCDtect, baralgin.

    auCDtect: CD records authenticity detector, version 0.8.2
    Copyright (c) 2004 Oleg Berngardt. All rights reserved.
    Copyright (c) 2004 Alexander Djourik. All rights reserved.

    mode: 0

    =======================================================
    Track: 01 - Калина-малина, чом не процвітаєш
    Quality: CDDA, 100%
    =======================================================
    Track: 02 - Бабський казачок
    Quality: CDDA, 100%
    =======================================================
    Track: 03 - Розкопайте, хлопці, греблю
    Quality: MPEG, 80%
    =======================================================
    Track: 04 -
    Quality: CDDA, 100%
    =======================================================
    Track: 05 -
    Quality: CDDA, 100%
    =======================================================
    Track: 06 - Ой Ти Петре, Петре
    Quality: CDDA, 100%
    =======================================================
    Track: 07 -
    Quality: CDDA, 100%
    =======================================================
    Track: 08 - Котилася, ой, ясна зоря з неба
    Quality: CDDA, 100%
    =======================================================
    Track: 09 - Бойківська латканка
    Quality: CDDA, 100%
    =======================================================
    Track: 10 - Розлука-розлученька
    Quality: CDDA, 100%
    =======================================================
    Track: 11 - Вітер з поля, хвиля з моря
    Quality: CDDA, 100%
    =======================================================
    Track: 12 - Ой, Іване, Іваночку
    Quality: CDDA, 100%
    =======================================================
    Track: 13 - Гречаники
    Quality: CDDA, 100%
    =======================================================
    Track: 14 - Василиха
    Quality: CDDA, 100%
    =======================================================
    CD 2 Етно-рок


    01. Олег Скрипка і Ле Гранд Оркестр - Країна Мрій
    02. Здоб Ши Здуб
    03. Карпатіяни - Дівонька
    04. Spontaani Vire
    05. Гурт’Йо’Гурт
    06. Мандри - Коло млину
    07. Сергій Пучков та Олексій Кабанов
    08. Палац
    09. Cankisou
    10. Капела Древутня
    11. Ішбель МакАскіл та Гурт’Йо’Гурт
    12. Енвер Ізмайлов

    Тривалість: 00:55:34
    Мова: українська, молдовська (2), відсутня (4,5,7), білоруська (8), чеська (9), польська (10), англійська (11), кримсько-татарська (12)
    log
    Exact Audio Copy V0.99 prebeta 4 from 23. January 2008

    Звіт EAC про видобування, котре виконане 9. березня 2009, 12:50

    Various / Країна Мрій - 2004(ч.2)

    Дисковод: _NEC DVD_RW ND-4550A Adapter: 0 ID: 1

    Режим читання : Точний
    Використати точний потік : Так
    Вимкнути аудіо кеш : Так
    Застосувати мітки C2 : Ні

    Комбіноване зміщення читання/запису : 0
    Екстрачитання областей Lead-in і Lead-out : Ні
    Заповнення пропущених семплів тишею : Так
    Видалення блоків з тишею на початку і кінці : Ні
    При вирахуванні CRC використовувались нульові семпли : Ні
    Використаний інтерфейс : 'Рідний' Win32-інтерфейс для Win NT/2000

    Застосований вихідний формат : Внутрішні WAV-операції
    Формат семпла : 44.100 Гц; 16 біт; стерео

    TOC видобутого CD

    Трек | Старт | Довжина | Початковий сектор | Кінцевий сектор
    ------------------------------------------------------------------
    1 | 0:00.00 | 4:47.60 | 0 | 21584
    2 | 4:47.60 | 6:44.72 | 21585 | 51956
    3 | 11:32.57 | 6:06.00 | 51957 | 79406
    4 | 17:38.57 | 4:23.50 | 79407 | 99181
    5 | 22:02.32 | 3:21.40 | 99182 | 114296
    6 | 25:23.72 | 2:54.23 | 114297 | 127369
    7 | 28:18.20 | 5:36.54 | 127370 | 152623
    8 | 33:54.74 | 3:18.06 | 152624 | 167479
    9 | 37:13.05 | 3:59.05 | 167480 | 185409
    10 | 41:12.10 | 4:14.53 | 185410 | 204512
    11 | 45:26.63 | 2:33.56 | 204513 | 216043
    12 | 48:00.44 | 7:32.70 | 216044 | 250013

    Статус діапазону і помилки

    Обраний діапазон

    Ім'я файлу D:\Країна Мрій - 2004(ч.2).wav

    Піковий рівень 100.0 %
    Якість діапазону 100.0 %
    CRC копії EEFB58ED
    Копіювання... OK

    Помилки не траплялися

    Кінець звіту

    ------------------------------------------------------------

    Exact Audio Copy V0.99 prebeta 4 from 23. January 2008

    Звіт EAC про видобування, котре виконане 9. березня 2009, 12:51

    Various / Країна Мрій - 2004(ч.2)

    Дисковод: _NEC DVD_RW ND-4550A Adapter: 0 ID: 1

    Режим читання : Точний
    Використати точний потік : Так
    Вимкнути аудіо кеш : Так
    Застосувати мітки C2 : Ні

    Комбіноване зміщення читання/запису : 0
    Екстрачитання областей Lead-in і Lead-out : Ні
    Заповнення пропущених семплів тишею : Так
    Видалення блоків з тишею на початку і кінці : Ні
    При вирахуванні CRC використовувались нульові семпли : Ні
    Використаний інтерфейс : 'Рідний' Win32-інтерфейс для Win NT/2000

    Застосований вихідний формат : Внутрішні WAV-операції
    Формат семпла : 44.100 Гц; 16 біт; стерео

    TOC видобутого CD

    Трек | Старт | Довжина | Початковий сектор | Кінцевий сектор
    ------------------------------------------------------------------
    1 | 0:00.00 | 4:47.60 | 0 | 21584
    2 | 4:47.60 | 6:44.72 | 21585 | 51956
    3 | 11:32.57 | 6:06.00 | 51957 | 79406
    4 | 17:38.57 | 4:23.50 | 79407 | 99181
    5 | 22:02.32 | 3:21.40 | 99182 | 114296
    6 | 25:23.72 | 2:54.23 | 114297 | 127369
    7 | 28:18.20 | 5:36.54 | 127370 | 152623
    8 | 33:54.74 | 3:18.06 | 152624 | 167479
    9 | 37:13.05 | 3:59.05 | 167480 | 185409
    10 | 41:12.10 | 4:14.53 | 185410 | 204512
    11 | 45:26.63 | 2:33.56 | 204513 | 216043
    12 | 48:00.44 | 7:32.70 | 216044 | 250013

    Статус діапазону і помилки

    Обраний діапазон

    Ім'я файлу D:\Країна Мрій - 2004(ч.2).wav

    Піковий рівень 100.0 %
    Якість діапазону 100.0 %
    CRC копії EEFB58ED
    Копіювання... OK

    Помилки не траплялися

    Кінець звіту
    fooCDtect
    fooCDtect - foobar2000 + auCDtect, baralgin.

    auCDtect: CD records authenticity detector, version 0.8.2
    Copyright (c) 2004 Oleg Berngardt. All rights reserved.
    Copyright (c) 2004 Alexander Djourik. All rights reserved.

    mode: 0

    ===========================================
    Track: 01 - Країна Мрій
    Quality: CDDA 100%
    ===========================================
    Track: 02 - Країна Мрій - 2004(ч.2)
    Quality: CDDA 100%
    ===========================================
    Track: 03 - Дівонька
    Quality: CDDA 100%
    ===========================================
    Track: 04 - Країна Мрій - 2004(ч.2)
    Quality: CDDA 99%
    ===========================================
    Track: 05 - Країна Мрій - 2004(ч.2)
    Quality: CDDA 100%
    ===========================================
    Track: 06 - Коло млину
    Quality: CDDA 100%
    ===========================================
    Track: 07 - Сергій Пучков та Олексій Кабанов
    Quality: CDDA 99%
    ===========================================
    Track: 08 - Палац
    Quality: CDDA 100%
    ===========================================
    Track: 09 - Чанкішоу
    Quality: CDDA 100%
    ===========================================
    Track: 10 - Капела Древутня
    Quality: CDDA 100%
    ===========================================
    Track: 11 - Ішбель Макаскіл та Гурт Йо'Гурт
    Quality: CDDA 100%
    ===========================================
    Track: 12 - Енвер Ізмайлов
    Quality: CDDA 100%
    ===========================================

Тривалість: 01:40:08
Мова: українська, молдовська, білоруська, чеська, польська, англійська, кримсько-татарська, литовська, мова республіки Марій Ел, відсутня
Аудіо-кодек: APE
Бітрейт: 823-919 кб/с
Джерело: інтернет
Додаткова інформація:
Подвійний живий альбом, записаний під час фестивалю. На першому диску звучать автентичні фольклорні колективи, на другому - виконавці у стилі "етно-рок".


Якщо Ви справді бажаєте підтримати українське - після прослуховування, якщо музика вам сподобалась,
придбайте ліцензійний диск.
Підтримаймо вітчизняних виконавців!


Срібний реліз (на рейтинг впливає 50% завантаженого)
 Трекер:    Зареєстрований   

Завантажити / скачати українську музику



відео для новачків



 Зареєстрований:   2012-05-12 17:00
 Розмір:   629 MB 
 Оцінка музики:   3.3/10 (Голосів: 4)
   
Ваш часовий пояс: GMT + 2 Години

Нова тема   Відповісти