Завантажити та скачати торренти українською


Катинь / Katyn (2007) 720p Ukr/Pol | Sub Eng

Нові коментарі

Нова тема   Відповісти
Автор Повідомлення
braveboy 
Відео Гуртом - команда HD
Відео Гуртом - команда HD


З нами з: 15.06.10
Востаннє: 29.10.16
Повідомлень: 958

2012-05-12 06:28  

Катинь / Katyn (2007) 720p Ukr/Pol | Sub Eng



«The untold story of the crime Stalin could not hide»

Жанр: драма, військовий, історія
Країна: Польща



Кіностудія / кінокомпанія: ITI Cinema
Режисер: Анджей Вайда
Актори: Андзі Чіра, Майя Осташевська, Артур Жмієвскі, Данута Стенка, Ян Енглерт, Магдалена Целецьких, Агнешка Глинська, Павло Малашинський, Майя Коморовська, Владислав Ковальський
Нагороди

Фільм номінувався від Польщі на премію «Оскар» 2008 року за кращий іноземний фільм і потрапив до п'ятірки фільмів, що претендували на премію
Сюжет:
Літературна основа фільму - повість Анджея Мулярчика «Post Mortem. Катинська повість ».

Фільм починається 17 вересня 1939 року та закінчується восени 1945. У фільмі чотири головні лінії. Це долі чотирьох польських офіцерів і, в першу чергу, долі їх родичів, які не знають правди, але здогадуються про неї. Це фільм про жінок, які чекають, не вірять в смерть, сподіваються.



Тривалість: 02:01:54
Якість: 720p
Відео:
кодек:
розмір кадру: 1280 х 534
бітрейт: 7368 кб/с

Аудіо # 1:
мова: українська
переклад: професійний дубльований
кодек: 5.1
бітрейт: 448 кб/с

Аудіо # 2:
мова: польська
переклад: оригінал
кодек: 5.1
бітрейт: 1510 кб/с

Джерело озвучення:


Субтитри:
мова:англійська
тип: програмні (м'які)
формат: *.srt
log

[info]: frame I:1416 Avg QP:13.83 size:123198
[info]: frame P:36913 Avg QP:15.29 size: 67259
[info]: frame B:137109 Avg QP:17.04 size: 29711
[info]: consecutive B-frames: 2.2% 2.2% 6.9% 14.6% 16.8% 42.4% 14.8%
[info]: mb I I16..4: 8.7% 72.0% 19.3%
[info]: mb P I16..4: 3.2% 26.8% 3.9% P16..4: 22.6% 20.0% 16.4% 2.4% 0.8% skip: 4.0%
[info]: mb B I16..4: 0.5% 5.0% 0.8% B16..8: 33.2% 21.4% 9.2% direct: 9.2% skip:20.8% L0:44.7% L1:37.8% BI:17.5%
[info]: 8x8 transform intra:78.5% inter:45.2%
[info]: coded y,uvDC,uvAC intra: 94.3% 84.9% 66.4% inter: 48.1% 39.0% 14.6%
[info]: i16 v,h,dc,p: 32% 5% 16% 47%
[info]: i8 v,h,dc,ddl,ddr,vr,hd,vl,hu: 12% 8% 10% 10% 13% 12% 12% 11% 13%
[info]: i4 v,h,dc,ddl,ddr,vr,hd,vl,hu: 14% 6% 4% 10% 15% 13% 13% 12% 13%
[info]: i8c dc,h,v,p: 48% 23% 18% 11%
[info]: Weighted P-Frames: Y:10.6% UV:4.4%
[info]: ref P L0: 40.7% 9.4% 21.2% 7.8% 7.6% 4.7% 5.1% 2.8% 0.5% 0.0%
[info]: ref B L0: 66.3% 15.5% 7.7% 4.8% 3.3% 1.8% 0.6%
[info]: ref B L1: 91.7% 8.3%
[info]: kb/s:7366.24
MediaInfo
General
Unique ID : 230435797644247277880391133778223509924 (0xAD5C51FECCA9FEB6AAAC45E7D88B31A4)
Complete name : E:\Temp\Katyn (2007) [Ukr,Pol Sub Eng] 720p [HURTOM] by braveboy.mkv
Format : Matroska
Format version : Version 2
File size : 7.94 GiB
Duration : 2h 1mn
Overall bit rate : 9 319 Kbps
Movie name : Katyn (2007) 720p by braveboy
Encoded date : UTC 2012-05-12 04:50:46
Writing application : mkvmerge v5.5.0 ('Healer') built on Apr 6 2012 21:43:24
Writing library : libebml v1.2.3 + libmatroska v1.3.0

Video
ID : 1
Format : AVC
Format/Info : Advanced Video Codec
Format profile : [email protected]
Format settings, CABAC : Yes
Format settings, ReFrames : 8 frames
Codec ID : V_MPEG4/ISO/AVC
Duration : 2h 1mn
Bit rate : 7 368 Kbps
Width : 1 280 pixels
Height : 534 pixels
Display aspect ratio : 2.40:1
Frame rate : 24.000 fps
Color space : YUV
Chroma subsampling : 4:2:0
Bit depth : 8 bits
Scan type : Progressive
Bits/(Pixel*Frame) : 0.449
Stream size : 6.11 GiB (77%)
Title : Katyn (2007) 720p by braveboy
Writing library : core 124 r2197 69a0443
Encoding settings : cabac=1 / ref=8 / deblock=1:-3:-3 / analyse=0x3:0x133 / me=umh / subme=9 / psy=1 / psy_rd=0.80:0.00 / mixed_ref=1 / me_range=32 / chroma_me=1 / trellis=1 / 8x8dct=1 / cqm=0 / deadzone=21,11 / fast_pskip=0 / chroma_qp_offset=-2 / threads=3 / sliced_threads=0 / nr=0 / decimate=0 / interlaced=0 / bluray_compat=0 / constrained_intra=0 / bframes=6 / b_pyramid=2 / b_adapt=2 / b_bias=0 / direct=1 / weightb=1 / open_gop=0 / weightp=2 / keyint=240 / keyint_min=23 / scenecut=40 / intra_refresh=0 / rc=2pass / mbtree=0 / bitrate=7368 / ratetol=1.0 / qcomp=0.60 / qpmin=10 / qpmax=51 / qpstep=4 / cplxblur=20.0 / qblur=0.5 / ip_ratio=1.40 / pb_ratio=1.30 / aq=1:1.00
Default : Yes
Forced : No

Audio #1
ID : 2
Format : AC-3
Format/Info : Audio Coding 3
Mode extension : CM (complete main)
Format settings, Endianness : Big
Codec ID : A_AC3
Duration : 2h 1mn
Bit rate mode : Constant
Bit rate : 448 Kbps
Channel(s) : 6 channels
Channel positions : Front: L C R, Side: L R, LFE
Sampling rate : 48.0 KHz
Bit depth : 16 bits
Compression mode : Lossy
Stream size : 391 MiB (5%)
Title : 5.1 - 448 kbps [DVD]
Language : Ukrainian
Default : Yes
Forced : No

Audio #2
ID : 3
Format :
Format/Info : Digital Theater Systems
Codec ID : A_DTS
Duration : 2h 1mn
Bit rate mode : Constant
Bit rate : 1 510 Kbps
Channel(s) : 6 channels
Channel positions : Front: L C R, Side: L R, LFE
Sampling rate : 48.0 KHz
Bit depth : 24 bits
Compression mode : Lossy
Stream size : 1.29 GiB (16%)
Title : 5.1 - 1510 kbps
Language : Polish
Default : No
Forced : No

Text
ID : 4
Format : UTF-8
Codec ID : S_TEXT/UTF8
Codec ID/Info : UTF-8 Plain Text
Title : Full
Language : English
Default : No
Forced : No
Порівняльні скріншоти
Source vs Encode





Скріншоти





720p by braveboy
Цитата:

* Source: Katyń (2007) 1080p BD-Remux


Особиста оцінка: 10 - без зайвих вагань рекомендую всім!


 Трекер:    Зареєстрований   

Завантажити / скачати фільм українською



відео для новачків



 Зареєстрований:   2012-05-12 07:04
 Розмір:   7.94 GB 
 Оцінка фільму:   9/10 (Голосів: 9)
   
Інші релізи
   Катинь / Katyn (2007) 1080p Ukr/Pol SainTManiac  2 / 0   10.01 GB   2011-01-28 18:22 
   Катинь / Katyn (2007) 720p Ukr/Pol | Sub Eng pohgejib  1 / 0   6.48 GB   2011-01-25 19:39 
   Катинь / Katyn (2007) Ukr/Pol Anonymous  16 / 0   2 GB   2010-07-08 16:54 
bot 
робот


З нами з: 30.09.07
Востаннє: 26.05.05
Повідомлень: 16004

2012-05-12 06:29  
Тему перенесено з Фільми в HD до форуму Анонси релізів від Відео Гуртом


braveboy

bot 
робот


З нами з: 30.09.07
Востаннє: 26.05.05
Повідомлень: 16004

2012-05-12 07:02  
Тему перенесено з Анонси релізів від Відео Гуртом до форуму Фільми в HD


braveboy

taras1994 
Почесний оцифрувальник літератури


З нами з: 23.03.12
Востаннє: 30.11.16
Повідомлень: 5096

2012-05-12 08:37  
Хто хоче є ще й такий варіант
http://toloka.to/t20822
Якщо хтось розуміється в якості, поясніть різницю.

Kucherman 
Частий відвідувач


З нами з: 03.06.08
Востаннє: 04.11.16
Повідомлень: 46

2012-05-12 13:34  
taras1994 написано:
Якщо хтось розуміється в якості, поясніть різницю.

Цей реліз якісніший. По-перше він з Bluray, а по-друге тут бітрейт більший.

hightension311 
Новенький


З нами з: 21.10.10
Востаннє: 02.12.16
Повідомлень: 15

2012-05-12 14:38  
А чому німецькомовний постер, філь змімали поляки?
braveboy 
Відео Гуртом - команда HD
Відео Гуртом - команда HD


З нами з: 15.06.10
Востаннє: 29.10.16
Повідомлень: 958

2012-05-12 19:59  
............
St.Bogush 
VIP


З нами з: 03.04.09
Востаннє: 06.12.16
Повідомлень: 784

2012-05-13 03:27  
польський постер...здається


Код:
[img]http://i7.fastpic.ru/big/2010/0622/fc/d7a34857dd73cac408e2c9b3202a2cfc.jpg[/img]

braveboy 
Відео Гуртом - команда HD
Відео Гуртом - команда HD


З нами з: 15.06.10
Востаннє: 29.10.16
Повідомлень: 958

2012-05-13 05:35  
St.Bogush написано:

польський постер...здається


дякую але мені більш подобається мій варіант

Klymkiv_a 
Відео Гуртом - підтримка та поширення
Відео Гуртом - підтримка та поширення


З нами з: 04.12.11
Востаннє: 08.11.16
Повідомлень: 55

2012-05-15 18:04  
hightension311 написано:
А чому німецькомовний постер, філь змімали поляки?

Взагалі-то постер на англійській.
п. braveboy дакую за реліз!

imonko 
Відео Гуртом - фільмокрай
Відео Гуртом - фільмокрай


З нами з: 20.07.08
Востаннє: 31.10.16
Повідомлень: 7309

2012-05-15 18:31  
а мо тому що узаконених вимог до постера немає, хоч хорватський.
Klymkiv_a 
Відео Гуртом - підтримка та поширення
Відео Гуртом - підтримка та поширення


З нами з: 04.12.11
Востаннє: 08.11.16
Повідомлень: 55

2012-05-15 19:36  
imonko написано:
хоч хорватський.

Абсолютно з Вами згідний, основне, щоб фільм був на рідній!

braveboy 
Відео Гуртом - команда HD
Відео Гуртом - команда HD


З нами з: 15.06.10
Востаннє: 29.10.16
Повідомлень: 958

2012-05-15 19:37  
Klymkiv_a написано:
Взагалі-то постер на англійській.

спершу був німецький потім я його поміняв на анг.

Klymkiv_a 
Відео Гуртом - підтримка та поширення
Відео Гуртом - підтримка та поширення


З нами з: 04.12.11
Востаннє: 08.11.16
Повідомлень: 55

2012-05-15 19:43  
Недогледів.
hightension311, забираю свої слова назад.

braveboy 
Відео Гуртом - команда HD
Відео Гуртом - команда HD


З нами з: 15.06.10
Востаннє: 29.10.16
Повідомлень: 958

2012-05-15 19:55  
стосовно відеоряду, в деяких кадрах на початку фільму злівого боку видна чорна смужка так було на Blu-ray
chaoscor 
Свій


З нами з: 17.10.10
Востаннє: 03.12.16
Повідомлень: 73

2012-09-22 19:30  
Настільки важкий і реалістичний фільм, що ніяк не можу переглянути його вдруге (духу не вистачає).
Вважаю, що цю історію треба таки раз, але подивитись...

taras1994 
Почесний оцифрувальник літератури


З нами з: 23.03.12
Востаннє: 30.11.16
Повідомлень: 5096

2012-09-22 21:54  
фільм показує чому срср це антропологічна катастрофа.
Ваш часовий пояс: GMT + 2 Години

Нова тема   Відповісти