Завантажити та скачати торренти українською


Кадет Келлі / Cadet Kelly (2002) 720p-mini 2xUkr/Eng

Нові коментарі

Нова тема   Відповісти
Автор Повідомлення
urij546724 
Відео Гуртом - фільмокрай
Відео Гуртом - фільмокрай


З нами з: 16.03.10
Востаннє: 07.12.16
Повідомлень: 5222

2012-05-10 13:01  
Кадет Келлі / Cadet Kelly (2002) 720p-mini 2xUkr/Eng

Альтернативні постери:

Слоган:
«Too Cool For The Rules!»
«Занадто крута для правил!»


Жанр: комедія, сімейний
Країна: США (), Канада ()



Кіностудія / кінокомпанія: Disney Channel, Leider/Shapiro Productions, Walt Disney Television
Режисер: Ларрі Шоу (Larry Shaw)
Актори: Хіларі Дафф (Hilary Duff), Крісті Карлсон Романо (Christy Carlson Romano), Гері Коул (Gary Cole), Шон Ешмор (Shawn Ashmore), Еймі Гарсіа (Aimee Garcia), Лінда Кеш (Linda Kash), Найджел Хамер (Nigel Hamer)
Усі актори та їх фото:
Хіларі Дафф (Hilary Duff), Крісті Карлсон Романо (Christy Carlson Romano), Гері Коул (Gary Cole), Шон Ешмор (Shawn Ashmore), Еймі Гарсіа (Aimee Garcia), Лінда Кеш (Linda Kash), Найджел Хамер (Nigel Hamer), Сара Гадон (Sarah Gadon), Андреа Люіс (Andrea Lewis), Джо Метісон (Joe Matheson), Беверлі Бюзон (Beverlee Buzon), Далін Ірвін (Dalene Irvine), Ейвері Солтцмен (Avery Saltzman), Крістофер Таї (Christopher Tai), Джош Віттіг (Josh Wittig), Еді Інксеттер (Edie Inksetter), Стюарт Арнотт (Stewart Arnott), Десмонд Кемпбелл (Desmond Campbell), Тім Пост (Tim Post), Мартін Роуч (Martin Roach)



Сюжет:
Келлі Коллінз - незалежна старшокласниця з Нью-Йорка, для якої найважливіше свобода, самовираження і збереження своєї яскравої індивідуальності. Батьки Келлі розлучені, але при цьому вони залишилися хорошими друзями.

У мами з'являється залицяльник - генерал Джо Максвелл, який незабаром робить їй пропозицію. Келлі рада за маму, яка знайшла нову любов, але її радість незабаром йде на спад, оскільки нове заміжжя мами означає для Келлі переїзд в інше місто і навчання в новій школі, та не простій, а військовій!

Волелюбна дівчина стає кадетом Келлі у військовій академії, де панує залізна дисципліна. Нове оточення починає впливати на характер Келлі, але і вона сама може вплинути на зміну порядків в школі в кращу сторону...
Назва фільму у інших країнах
Cadete Kelly
Бразилія / Іспанія


Kadet Kelly
Данія / Польща


'Dokimos' Kelly
Греція


Cadet Kelly
Франція


Cadet Kelly - Una ribelle in uniforme
Італія


Kadett Kelly
Швеція


Kelly keksii keinot
Фінляндія


Soldat Kelly
Німеччина


Tinikadét
Угорщина


Кадет Келли
Росія
Media info
General
Count : 278
Count of stream of this kind : 1
Kind of stream : General
Kind of stream : General
Stream identifier : 0
Unique ID : 229464858393910356832444907333713402206
Unique ID : 229464858393910356832444907333713402206 (0xACA152FE8B6485EC822510A37174195E)
Count of video streams : 1
Count of audio streams : 3
Video_Format_List : AVC
Video_Format_WithHint_List : AVC
Codecs Video : AVC
Video_Language_List : English
Audio_Format_List : AC-3 / AC-3 / AC-3
Audio_Format_WithHint_List : AC-3 / AC-3 / AC-3
Audio codecs : / /
Audio_Language_List : Ukrainian / Ukrainian / English
Complete name : E:\Cadet Kelly (2002) [ukr.K1_TRK Ukraina_eng_AC3_5.1] 720p-mini [Hurtom] by urij546724.mkv
Folder name : E:
File name : Cadet Kelly (2002) [ukr.K1_TRK Ukraina_eng_AC3_5.1] 720p-mini [Hurtom] by urij546724
File extension : mkv
Format : Matroska
Format : Matroska
Format/Url : http://packs.matroska.org/
Format/Extensions usually used : mkv mk3d mka mks
Commercial name : Matroska
Format version : Version 2
Codec : Matroska
Codec : Matroska
Codec/Url : http://packs.matroska.org/
Codec/Extensions usually used : mkv mk3d mka mks
File size : 2923137339
File size : 2.72 GiB
File size : 3 GiB
File size : 2.7 GiB
File size : 2.72 GiB
File size : 2.722 GiB
Duration : 6013184
Duration : 1h 40mn
Duration : 1h 40mn 13s 184ms
Duration : 1h 40mn
Duration : 01:40:13.184
Overall bit rate : 3888971
Overall bit rate : 3 889 Kbps
Stream size : 58171826
Stream size : 55.5 MiB (2%)
Stream size : 55 MiB
Stream size : 55 MiB
Stream size : 55.5 MiB
Stream size : 55.48 MiB
Stream size : 55.5 MiB (2%)
Proportion of this stream : 0.01990
Title : Cadet Kelly (2002) [ukr.K1_TRK Ukraina_eng_AC3_5.1] 720p-mini [Hurtom] by urij546724
Movie name : Cadet Kelly (2002) [ukr.K1_TRK Ukraina_eng_AC3_5.1] 720p-mini [Hurtom] by urij546724
Encoded date : UTC 2012-05-10 09:52:47
File creation date : UTC 2012-05-10 08:57:29.480
File creation date (local) : 2012-05-10 11:57:29.480
File last modification date : UTC 2012-05-10 09:56:36.000
File last modification date (local) : 2012-05-10 12:56:36.000
Writing application : mkvmerge v2.9.7 ('Tenderness') built on Jul 1 2009 18:43:35
Writing library : libebml v0.7.7 + libmatroska v0.8.1
Writing library : libebml v0.7.7 + libmatroska v0.8.1

Video
Count : 201
Count of stream of this kind : 1
Kind of stream : Video
Kind of stream : Video
Stream identifier : 0
ID : 1
ID : 1
Unique ID : 1
Format : AVC
Format/Info : Advanced Video Codec
Format/Url : http://developers.videolan.org/.html
Commercial name : AVC
Format profile : [email protected]
Format settings : CABAC / 3 Ref Frames
Format settings, CABAC : Yes
Format settings, CABAC : Yes
Format settings, ReFrames : 3
Format settings, ReFrames : 3 frames
Internet media type : video/H264
Codec ID : V_MPEG4/ISO/AVC
Codec ID/Url : http://ffdshow-tryout.sourceforge.net/
Codec : V_MPEG4/ISO/AVC
Codec : AVC
Codec/Family : AVC
Codec/Info : Advanced Video Codec
Codec/Url : http://ffdshow-tryout.sourceforge.net/
Codec profile : [email protected]
Codec settings : CABAC / 3 Ref Frames
Codec settings, CABAC : Yes
Codec_Settings_RefFrames : 3
Duration : 6013180
Duration : 1h 40mn
Duration : 1h 40mn 13s 180ms
Duration : 1h 40mn
Duration : 01:40:13.180
Bit rate : 2735000
Bit rate : 2 735 Kbps
Width : 1280
Width : 1 280 pixels
Height : 720
Height : 720 pixels
Pixel aspect ratio : 1.000
Display aspect ratio : 1.778
Display aspect ratio : 16:9
Frame rate : 23.976
Frame rate : 23.976 fps
Frame count : 144172
Resolution : 8
Resolution : 8 bits
Colorimetry : 4:2:0
Color space : YUV
Chroma subsampling : 4:2:0
Bit depth : 8
Bit depth : 8 bits
Scan type : Progressive
Scan type : Progressive
Interlacement : PPF
Interlacement : Progressive
Bits/(Pixel*Frame) : 0.124
Delay : 0
Delay : 00:00:00.000
Delay, origin : Container
Delay, origin : Container
Stream size : 1999067017
Stream size : 1.86 GiB (68%)
Stream size : 2 GiB
Stream size : 1.9 GiB
Stream size : 1.86 GiB
Stream size : 1.862 GiB
Stream size : 1.86 GiB (68%)
Proportion of this stream : 0.68388
Title : Cadet Kelly (2002) [ukr.K1_TRK Ukraina_eng_AC3_5.1] 720p-mini [Hurtom] by urij546724
Writing library : - core 98 r1649 20cbe10
Writing library : core 98 r1649 20cbe10
Writing library/Name :
Writing library/Version : core 98 r1649 20cbe10
Encoding settings : cabac=1 / ref=4 / deblock=1:0:0 / analyse=0x3:0x113 / me=umh / subme=7 / psy=1 / psy_rd=1.00:0.00 / mixed_ref=1 / me_range=16 / chroma_me=1 / trellis=1 / 8x8dct=1 / cqm=0 / deadzone=21,11 / fast_pskip=0 / chroma_qp_offset=-2 / threads=4 / sliced_threads=0 / nr=0 / decimate=1 / interlaced=0 / constrained_intra=0 / bframes=3 / b_pyramid=1 / b_adapt=1 / b_bias=0 / direct=1 / weightb=1 / weightp=2 / keyint=240 / keyint_min=24 / scenecut=40 / intra_refresh=0 / rc_lookahead=40 / rc=2pass / mbtree=1 / bitrate=2735 / ratetol=1.0 / qcomp=0.60 / qpmin=10 / qpmax=51 / qpstep=4 / cplxblur=20.0 / qblur=0.5 / ip_ratio=1.40 / aq=1:1.00
Language : en
Language : English
Language : English
Language : en
Language : eng
Language : en

Audio #1
Count : 197
Count of stream of this kind : 3
Kind of stream : Audio
Kind of stream : Audio
Stream identifier : 0
Stream identifier : 1
ID : 2
ID : 2
Unique ID : 3500397955
Format : AC-3
Format/Info : Audio Coding 3
Commercial name : AC-3
Mode extension : CM (complete main)
Codec ID : A_AC3
Codec :
Codec :
Codec/Family :
Codec/Info : Dolby
Duration : 6013184
Duration : 1h 40mn
Duration : 1h 40mn 13s 184ms
Duration : 1h 40mn
Duration : 01:40:13.184
Bit rate mode : CBR
Bit rate mode : Constant
Bit rate : 384000
Bit rate : 384 Kbps
Channel(s) : 6
Channel(s) : 6 channels
Channel positions : Front: L C R, Side: L R, LFE
Channel positions : 3/2/0.1
Sampling rate : 48000
Sampling rate : 48.0 KHz
Samples count : 288632832
Resolution : 16
Resolution : 16 bits
Bit depth : 16
Bit depth : 16 bits
Compression mode : Lossy
Compression mode : Lossy
Delay : 0
Delay : 00:00:00.000
Delay, origin : Container
Delay, origin : Container
Delay relative to video : 0
Video0 delay : 0
Stream size : 288632832
Stream size : 275 MiB (10%)
Stream size : 275 MiB
Stream size : 275 MiB
Stream size : 275 MiB
Stream size : 275.3 MiB
Stream size : 275 MiB (10%)
Proportion of this stream : 0.09874
Title : Українська доріжка. Запис з К1
Language : uk
Language : Ukrainian
Language : Ukrainian
Language : uk
Language : ukr
Language : uk
dialnorm : -29
dialnorm/String : -29 dB
compr : -0.28
compr/String : -0.28 dB
dynrng : -1.48
dynrng/String : -1.48 dB
bsid : 8
dialnorm_Average : -29
dialnorm_Average/String : -29 dB
dialnorm_Minimum : -29
dialnorm_Minimum/String : -29 dB
dialnorm_Maximum : -29
dialnorm_Maximum/String : -29 dB
dialnorm_Count : 2
compr_Average : -0.28
compr_Average/String : -0.28 dB
compr_Minimum : -0.28
compr_Minimum/String : -0.28 dB
compr_Maximum : -0.28
compr_Maximum/String : -0.28 dB
compr_Count : 2
dynrng_Average : -1.48
dynrng_Average/String : -1.48 dB
dynrng_Minimum : -1.48
dynrng_Minimum/String : -1.48 dB
dynrng_Maximum : -1.48
dynrng_Maximum/String : -1.48 dB
dynrng_Count : 2

Audio #2
Count : 197
Count of stream of this kind : 3
Kind of stream : Audio
Kind of stream : Audio
Stream identifier : 1
Stream identifier : 2
ID : 3
ID : 3
Unique ID : 690962844
Format : AC-3
Format/Info : Audio Coding 3
Commercial name : AC-3
Mode extension : CM (complete main)
Codec ID : A_AC3
Codec :
Codec :
Codec/Family :
Codec/Info : Dolby
Duration : 6013184
Duration : 1h 40mn
Duration : 1h 40mn 13s 184ms
Duration : 1h 40mn
Duration : 01:40:13.184
Bit rate mode : CBR
Bit rate mode : Constant
Bit rate : 384000
Bit rate : 384 Kbps
Channel(s) : 6
Channel(s) : 6 channels
Channel positions : Front: L C R, Side: L R, LFE
Channel positions : 3/2/0.1
Sampling rate : 48000
Sampling rate : 48.0 KHz
Samples count : 288632832
Resolution : 16
Resolution : 16 bits
Bit depth : 16
Bit depth : 16 bits
Compression mode : Lossy
Compression mode : Lossy
Delay : 0
Delay : 00:00:00.000
Delay, origin : Container
Delay, origin : Container
Delay relative to video : 0
Video0 delay : 0
Stream size : 288632832
Stream size : 275 MiB (10%)
Stream size : 275 MiB
Stream size : 275 MiB
Stream size : 275 MiB
Stream size : 275.3 MiB
Stream size : 275 MiB (10%)
Proportion of this stream : 0.09874
Title : Українська доріжка. Запис з ТРК Україна
Language : uk
Language : Ukrainian
Language : Ukrainian
Language : uk
Language : ukr
Language : uk
dialnorm : -29
dialnorm/String : -29 dB
compr : -0.28
compr/String : -0.28 dB
dynrng : -1.48
dynrng/String : -1.48 dB
bsid : 8
dialnorm_Average : -29
dialnorm_Average/String : -29 dB
dialnorm_Minimum : -29
dialnorm_Minimum/String : -29 dB
dialnorm_Maximum : -29
dialnorm_Maximum/String : -29 dB
dialnorm_Count : 2
compr_Average : -0.28
compr_Average/String : -0.28 dB
compr_Minimum : -0.28
compr_Minimum/String : -0.28 dB
compr_Maximum : -0.28
compr_Maximum/String : -0.28 dB
compr_Count : 2
dynrng_Average : -1.48
dynrng_Average/String : -1.48 dB
dynrng_Minimum : -1.48
dynrng_Minimum/String : -1.48 dB
dynrng_Maximum : -1.48
dynrng_Maximum/String : -1.48 dB
dynrng_Count : 2

Audio #3
Count : 188
Count of stream of this kind : 3
Kind of stream : Audio
Kind of stream : Audio
Stream identifier : 2
Stream identifier : 3
ID : 4
ID : 4
Unique ID : 3488702595
Format : AC-3
Format/Info : Audio Coding 3
Commercial name : AC-3
Mode extension : CM (complete main)
Codec ID : A_AC3
Codec :
Codec :
Codec/Family :
Codec/Info : Dolby
Duration : 6013184
Duration : 1h 40mn
Duration : 1h 40mn 13s 184ms
Duration : 1h 40mn
Duration : 01:40:13.184
Bit rate mode : CBR
Bit rate mode : Constant
Bit rate : 384000
Bit rate : 384 Kbps
Channel(s) : 6
Channel(s) : 6 channels
Channel positions : Front: L C R, Side: L R, LFE
Channel positions : 3/2/0.1
Sampling rate : 48000
Sampling rate : 48.0 KHz
Samples count : 288632832
Resolution : 16
Resolution : 16 bits
Bit depth : 16
Bit depth : 16 bits
Compression mode : Lossy
Compression mode : Lossy
Delay : 0
Delay : 00:00:00.000
Delay, origin : Container
Delay, origin : Container
Delay relative to video : 0
Video0 delay : 0
Stream size : 288632832
Stream size : 275 MiB (10%)
Stream size : 275 MiB
Stream size : 275 MiB
Stream size : 275 MiB
Stream size : 275.3 MiB
Stream size : 275 MiB (10%)
Proportion of this stream : 0.09874
Title : Англійська доріжка
Language : en
Language : English
Language : English
Language : en
Language : eng
Language : en
dialnorm : -22
dialnorm/String : -22 dB
compr : -0.28
compr/String : -0.28 dB
bsid : 6
dialnorm_Average : -22
dialnorm_Average/String : -22 dB
dialnorm_Minimum : -22
dialnorm_Minimum/String : -22 dB
dialnorm_Maximum : -22
dialnorm_Maximum/String : -22 dB
dialnorm_Count : 2
compr_Average : -0.28
compr_Average/String : -0.28 dB
compr_Minimum : -0.28
compr_Minimum/String : -0.28 dB
compr_Maximum : -0.28
compr_Maximum/String : -0.28 dB
compr_Count : 2
Тривалість: 01:40:13
Якість: 720p-mini
Відео:
кодек: H264
розмір кадру: 1280 х 720
бітрейт: ~ 2735 кб/с
частота кадрів: 23.976 к/с (fps)

Аудіо #1:
мова: українська
переклад: багатоголосий закадровий
кодек: 5.1
бітрейт: 384 кб/с
запис звуку з каналу:

Аудіо #2:
мова: українська
переклад: багатоголосий закадровий
кодек: 5.1
бітрейт: 384 кб/с
запис звуку з каналу:

Аудіо #3:
мова: англійська
переклад: оригінал
кодек: 5.1
бітрейт: 384 кб/с

Також цей фільм транслювали на Новому каналі, можливо з іншою озвучкою, тож якщо хтось побаче що буде повторна трансляція, то прохання повідомити мене.


Скріншоти:

Трейлер:
Семпл
Джерело 1_________Джерело 2_________Джерело 3_________Джерело 4
У випадку, якщо з усіх джерел семпл видалять, прохання повідомити мені у ПРИВАТ


Подяка:

1. Пану OlegCena і Пану Hulk1987 за запис звуку з ТБ.


Реліз створено:

Особиста оцінка: Не дивився.

Реліз не зберігатиму. Видалю після появи кількох сідів.


Срібний реліз (на рейтинг впливає 50% завантаженого)
 Трекер:    Зареєстрований   

Завантажити / скачати фільм українською



відео для новачків



 Зареєстрований:   2012-05-10 14:20
 Розмір:   2.72 GB 
 Оцінка фільму:   6.6/10 (Голосів: 8)
 Прохання залишати коментарі і не тікати з роздачі.
   
Інші релізи
   Кадет Келлі / Cadet Kelly (2002) 2xUkr/Eng urij546724  3 / 0   2.01 GB   2012-05-10 16:42 
Ваш часовий пояс: GMT + 2 Години

Нова тема   Відповісти