Завантажити та скачати торренти українською


Тобі, людино / Du levande (2007) 720p Swe | sub Ukr / Eng

Нові коментарі

Нова тема   Відповісти
Автор Повідомлення
antusyrzhuk 
Свій


З нами з: 09.06.09
Востаннє: 19.11.16
Повідомлень: 145

2012-05-09 12:49  
Тобі, людино / Du levande (2007) 720p Swe | sub Ukr / Eng

Тобі, людино / Du levande (2007) 720p Swe | sub Ukr / Eng


Жанр: комедія, драма, музичний
Країна: Швеція, Німеччина, Франція, Данія, Норвегія, Японія



#95 у списку ста кращих комедій за версією Rotten Tomatoes

Кіностудія / кінокомпанія: 4 1/2 Film, Canal+, Det Danske Filminstitut, Eurimages Council of Europe, Filmstiftung Nordrhein-Westfalen, Nordisk Film- & TV-Fond, Norsk Filmfond та ін.
Режисер: Рой Андерсон (Roy Andersson)
Актори: Джесіка Лундберг (Jessika Lundberg), Елізабет Геландер (Elisabeth Helander), Бйорн Енглунд (Björn Englund), Кемаль Сенер (Kemal Sener), Ерік Бекман (Eric Bäckman), Джесіка Нільсон (Jessica Nilsson)

Сюжет:
Фільм про людей, їх велич і ницість, радість і смуток, самовпевненість і тривогу, жагу кохати і бути коханими.


Тривалість: 01:33:17
Якість:
Відео:
кодек:
розмір кадру: 1216 х 720
бітрейт: 5197 кб/с

Аудіо:
мова: шведська
переклад: оригінал
кодек: 5.1
бітрейт: 1509 кб/с

Субтитри:
мова: українська
тип: програмні (м'які)
формат: *.srt
переклад з англійської: antusyrzhuk

Субтитри:
мова: англійська
тип: програмні (м'які)
формат: *.srt

Скріншоти


MediaInfo
Format : Matroska
Format version : Version 4 / Version 2
File size : 4.37 GiB
Duration : 1h 33mn
Overall bit rate : 6 707 Kbps
Movie name : Du levande (2007)
Encoded date : UTC 2016-08-26 12:31:41
Writing application : mkvmerge v6.5.0 ('Isn't she lovely') built on Oct 20 2013 12:50:05
Writing library : libebml v1.3.0 + libmatroska v1.4.1

Video
ID : 1
Format : AVC
Format/Info : Advanced Video Codec
Format profile : [email protected]
Format settings, CABAC : Yes
Format settings, ReFrames : 5 frames
Codec ID : V_MPEG4/ISO/AVC
Duration : 1h 33mn
Bit rate : 5 197 Kbps
Width : 1 216 pixels
Height : 720 pixels
Display aspect ratio : 1.689
Frame rate mode : Constant
Frame rate : 24.000 fps
Color space : YUV
Chroma subsampling : 4:2:0
Bit depth : 8 bits
Scan type : Progressive
Bits/(Pixel*Frame) : 0.247
Stream size : 3.30 GiB (76%)
Writing library : core 146 r2538 121396c
Encoding settings : cabac=1 / ref=5 / deblock=1:0:0 / analyse=0x3:0x133 / me=umh / subme=7 / psy=1 / psy_rd=1.00:0.00 / mixed_ref=1 / me_range=16 / chroma_me=1 / trellis=1 / 8x8dct=1 / cqm=0 / deadzone=21,11 / fast_pskip=0 / chroma_qp_offset=-2 / threads=12 / lookahead_threads=2 / sliced_threads=0 / nr=0 / decimate=1 / interlaced=0 / bluray_compat=0 / constrained_intra=0 / bframes=3 / b_pyramid=2 / b_adapt=2 / b_bias=0 / direct=3 / weightb=1 / open_gop=0 / weightp=2 / keyint=250 / keyint_min=24 / scenecut=40 / intra_refresh=0 / rc_lookahead=50 / rc=2pass / mbtree=1 / bitrate=5197 / ratetol=1.0 / qcomp=0.60 / qpmin=0 / qpmax=69 / qpstep=4 / cplxblur=20.0 / qblur=0.5 / ip_ratio=1.40 / aq=1:1.00
Default : Yes
Forced : No

Audio
ID : 2
Format :
Format/Info : Digital Theater Systems
Mode : 16
Format settings, Endianness : Big
Codec ID : A_DTS
Duration : 1h 33mn
Bit rate mode : Constant
Bit rate : 1 509 Kbps
Channel(s) : 6 channels
Channel positions : Front: L C R, Side: L R, LFE
Sampling rate : 48.0 KHz
Bit depth : 24 bits
Compression mode : Lossy
Stream size : 1 007 MiB (23%)
Language : Swedish
Default : Yes
Forced : No

Text #1
ID : 3
Format : UTF-8
Codec ID : S_TEXT/UTF8
Codec ID/Info : UTF-8 Plain Text
Language : Ukrainian
Default : Yes
Forced : No

Text #2
ID : 4
Format : UTF-8
Codec ID : S_TEXT/UTF8
Codec ID/Info : UTF-8 Plain Text
Language : English
Default : No
Forced : No
Джерело:
Особиста оцінка: 10 - без зайвих вагань рекомендую всім!


Золотий реліз (завантажене не впливає на рейтинг)
 Трекер:    Зареєстрований   

Завантажити / скачати фільм українською



відео для новачків



 Зареєстрований:   2016-09-11 08:32
 Розмір:   4.37 GB 
 Оцінка фільму:   10/10 (Голосів: 3)
   
Aaz 
Новенький


З нами з: 25.02.09
Востаннє: 25.09.16
Повідомлень: 10

2012-05-09 14:15  
Який маленький розмір у постера Happy
В мене монітор аж почав тріщати під час завантаження...

Сонцеслав 
VIP


З нами з: 26.01.11
Востаннє: 21.11.16
Повідомлень: 385

2012-05-09 20:04  
Наразі правильно писати "швецька"...
bohdk 
Відео Гуртом - субтитрування
Відео Гуртом - субтитрування


З нами з: 23.10.09
Востаннє: 09.12.16
Повідомлень: 561

2012-05-14 15:37  
Сонцеслав
Таки "шведська". Не потрібно самотужки розвивати українську мову. Список найуживаніших мовних помилок

zaika 
VIP


З нами з: 01.07.12
Востаннє: 10.12.16
Повідомлень: 954

2014-07-05 09:51  
Не думаю що це комедія, драма чи музичний фільм. Це велике спрощення. Музики у фільмі взагалі немає. Цей фільм, по-моєму, є наслідуванням Л. Бунюеля. Тільки більш по-шведськи флегматичний. Потрібно ще якось передивитись його. Такі фільми за раз не можна більш-менш осягнути. Велике спасибі. 10/10.
antusyrzhuk 
Свій


З нами з: 09.06.09
Востаннє: 19.11.16
Повідомлень: 145

2016-09-11 08:33  
торент-файл замінено
11FrYkT 
Модератор відео


З нами з: 20.02.11
Востаннє: 10.12.16
Повідомлень: 3135

2016-09-11 08:35  
antusyrzhuk , ще бажано пишіть що замінили
antusyrzhuk 
Свій


З нами з: 09.06.09
Востаннє: 19.11.16
Повідомлень: 145

2016-09-11 12:22  
замінено все. AVC на 720
taksist 
Свій


З нами з: 10.12.12
Востаннє: 10.12.16
Повідомлень: 52

2016-10-02 22:04  
муть.
1 з 10.

bullshit detector -wa51 
Новенький


З нами з: 02.10.16
Востаннє: 27.11.16
Повідомлень: 5

2016-10-03 12:48  
@taksist
за 39 хвилин нодивитись 3 фільма і всі "муть.
1 з 10."
може вони просто не на ваш розум? чи недопив вчора? шукав 'розваги упитих в ласвегасі' а натрапив на артхаус? чи таксіст -просто хейтер. стараюсь не заходити на сайти, де гуртом заохочують таких ображених життям недоумків

герой Роя Андерсона:
Цитата:
Я психіатр. 27 років.
Рік за роком слухати пацієнтів, які не задоволені своїм життям,
які хочуть веселитися, які хочуть, щоб я їм у цьому допоміг.
...
Люди вимагають занадто багато.
Це висновок, до якого я прийшов за усі ці роки.
Вони вимагають щастя, і в той же час вони егоцентричні, егоїстичні і скупі.
Ну, хотілося б бути чесним.
хотів сказати, що вони просто підлі, більшість із них.
Проводити годину за годиною в кабінеті,
намагаючись зробити підлу людину щасливою...
Немає сенсу.
Не треба так робити.
Я вже так не роблю.
Зараз я просто прописую таблетки.
Чим сильніші, тим краще.
Отак.

Ваш часовий пояс: GMT + 2 Години

Нова тема   Відповісти