Завантажити та скачати торренти українською


Шерлок Холмс / Sherlock Holmes (2009) 720p-mini

Нові коментарі

Нова тема   Відповісти
Автор Повідомлення
Drool 
VIP


З нами з: 17.04.10
Востаннє: 10.12.16
Повідомлень: 1270

2012-05-08 11:05  
Шерлок Холмс / Sherlock Holmes (2009) 720p-mini

Жанр: бойовик, екшн, детектив, пригодницький, кримінальний
Країна: США, Англія



Кіностудія / кінокомпанія: Warner Brothers
Режисер: Гай Річі
Актори: Роберт Дауні мол., Джуд Лоу, Рейчел МакАдамс, Марк Стронг, Едді Марсан, Роберт Мейллет, Джеральдін Джеймс, Келлі Райлі, Вільям Х'юстон, Ганс Метісон

Сюжет:
Шерлок Холмс (Роберт Дауні мол.) і доктор Ватсон (Джуд Лоу) беруть могутнього лорда Блеквуда (Марк Стронг) на місці злочину, дивом запобігаючи чергове жертовне вбивство. Доки окультиста-недотепу готують до повішення, Ватсон з'їжджає з Бейкер-стріт до нареченої, залишаючи Холмса на самоті, що негайно позначається на душевному здоров'ї детектива. Він впадає в депресію. Блеквуд повішений, і здається, що настільки сильного візаві більше не знайти, однак через кілька днів по Лондону розходяться чутки про воскресіння лорда. У його могилі знайдений інший. Холмс і Ватсон знову в справі! Поки найкращі друзі нишпорять по сліду повсталого з пекла, в місто прибуває аферистка Ірен Адлер (Рейчел МакАдамс), яка колись закохала в себе Холмса. У цьому розслідуванні в неї є свої резони ...


Тривалість: 02:08:24
Якість: 720-mini
Відео:
кодек:
розмір кадру: 1280x720
бітрейт: 2500 кб/с

Аудіо:
мова: українська
переклад: професійний дубльований
кодек: 5.1
бітрейт: 448 кб/с

Джерело озвучення:
MediaInfo
General
Unique ID : 209697928738137427643817729198324894657 (0x9DC25A1E3289A9C085F26CD952AACBC1)
Complete name :Sherlock.Holmes.2009.Dub.Ukr.BRRip.720p.mkv
Format : Matroska
Format version : Version 2
File size : 2.64 GiB
Duration : 2h 8mn
Overall bit rate : 2 947 Kbps
Movie name : Шерлок Холмс / Sherlock Holmes (2009) 720p
Encoded date : UTC 2012-04-17 12:58:17
Writing application : mkvmerge v3.4.0 ('Rapunzel') збірка від May 15 2010 09:38:20
Writing library : libebml v0.8.0 + libmatroska v0.9.0

Video
ID : 1
Format : AVC
Format/Info : Advanced Video Codec
Format profile : [email protected]
Format settings, CABAC : No
Format settings, ReFrames : 4 frames
Codec ID : V_MPEG4/ISO/AVC
Duration : 2h 8mn
Bit rate : 2 500 Kbps
Width : 1 280 pixels
Height : 720 pixels
Display aspect ratio : 16:9
Frame rate : 23.976 fps
Color space : YUV
Chroma subsampling : 4:2:0
Bit depth : 8 bits
Scan type : Progressive
Bits/(Pixel*Frame) : 0.113
Stream size : 2.19 GiB (83%)
Title : Sherlock Holmes 2009 BRRip 720p
Writing library : core 116 r2074 2641b9e
Encoding settings : cabac=0 / ref=1 / deblock=1:0:0 / analyse=0x3:0x133 / me=dia / subme=7 / psy=1 / psy_rd=1.00:0.00 / mixed_ref=0 / me_range=16 / chroma_me=1 / trellis=2 / 8x8dct=1 / cqm=0 / deadzone=21,11 / fast_pskip=1 / chroma_qp_offset=-2 / threads=3 / sliced_threads=0 / nr=0 / decimate=1 / interlaced=0 / bluray_compat=0 / constrained_intra=0 / bframes=3 / b_pyramid=2 / b_adapt=1 / b_bias=0 / direct=3 / weightb=1 / open_gop=0 / weightp=1 / keyint=250 / keyint_min=23 / scenecut=40 / intra_refresh=0 / rc=2pass / mbtree=0 / bitrate=2500 / ratetol=2.0 / qcomp=0.60 / qpmin=10 / qpmax=51 / qpstep=4 / cplxblur=20.0 / qblur=0.5 / ip_ratio=1.40 / pb_ratio=1.30 / aq=1:1.00
Default : Yes
Forced : No

Audio
ID : 2
Format : AC-3
Format/Info : Audio Coding 3
Mode extension : CM (complete main)
Format settings, Endianness : Big
Codec ID : A_AC3
Duration : 2h 8mn
Bit rate mode : Constant
Bit rate : 448 Kbps
Channel(s) : 6 channels
Channel positions : Front: L C R, Side: L R, LFE
Sampling rate : 48.0 KHz
Bit depth : 16 bits
Compression mode : Lossy
Stream size : 411 MiB (15%)
Title : Ukrainian
Language : Ukrainian
Default : Yes
Forced : No
Скріншоти






Особиста оцінка: 8 - мені сподобалося


 Трекер:    Зареєстрований   

Завантажити / скачати фільм українською



відео для новачків



 Зареєстрований:   2012-05-08 11:05
 Розмір:   2.64 GB 
 Оцінка фільму:   9.9/10 (Голосів: 27)
   
Інші релізи
braveboy 
Відео Гуртом - команда HD
Відео Гуртом - команда HD


З нами з: 15.06.10
Востаннє: 29.10.16
Повідомлень: 958

2012-05-15 21:15  
щось цей реліз не вписується в правила

Drool написано:
Encoding settings: ref=1, me=dia

Ваш часовий пояс: GMT + 2 Години

Нова тема   Відповісти