Завантажити та скачати торренти українською


Шерлок Холмс: Гра тіней / Sherlock Holmes: A Game of Shadows (2011) 720p

Нові коментарі

Нова тема   Відповісти
Автор Повідомлення
Drool 
VIP


З нами з: 17.04.10
Востаннє: 10.12.16
Повідомлень: 1270

2012-05-07 11:23  
Шерлок Холмс: Гра тіней / Sherlock Holmes: A Game of Shadows (2011) 720p

Жанр: детектив, трилер, пригодницький
Країна: США



Кіностудія / кінокомпанія: Warner Bros. Pictures, Village Roadshow Pictures Silver Pictures
Режисер: Гай Річі
Актори: Роберт Дауні Молодший, Джуд Лоу, Нумі Рапейс, Рейчел МакАдамс, Марк Стронг, Джаред Харріс

Сюжет:
Шерлок Холмс (Роберт Дауні, мол.) і його давній помічник Доктор Ватсон (Джуд Лоу) намагаються перехитрити і подолати свого найпідступнішого противника - професора Моріарті (Джаред Харріс) - за допомогою старшого брата Холмса Майкрофта Холмса (Стівен Фрай) і циганки на ім'я Сім (Нумі Рапас).

Коли кронпринц Австрії був знайдений мертвим, всі докази, на думку інспектора Лестрейда (Едді Марсан), вказували на самогубство. Проте Шерлок Холмс приходить до висновку, що спадкоємець престолу був убитий, і це вбивство — лише маленький шматочок набагато грандіознішої і зловіснішої мозаїки, створеної професором Моріарті. Повне небезпек розслідування веде Холмса, Ватсона і їх випадкову супутницю циганку Сім по всій Європі, з Англії до Франції, потім до Німеччини і, нарешті, до Швейцарії. Але підступний Моріарті завжди на крок попереду, він плете павутину із смерті і руйнувань, що є частиною його великого плану, успіх якого змінить хід історії.


Тривалість: 02:08:44
Якість: 720p
Відео:
кодек:
розмір кадру: 1280x528
бітрейт: 3100 кб/с

Аудіо:
мова: українська
переклад: професійний дубльований
кодек: 5.1
бітрейт: 448 кб/с

Джерело озвучення:


Субтитри:
мова: українська
тип: програмні (м'які)
формат: *.srt
MediaInfo
General
Unique ID : 70260893193974520142005552446401216350 (0x34DBC17CE7FAB259AE52482D6FD8FF5E)
Complete name : Sherlock.Holmes.A.Game.of.Shadows.2011.D.Ukr..720p.UAGet.mkv
Format : Matroska
Format version : Version 2
File size : 3.22 GiB
Duration : 2h 8mn
Overall bit rate : 3 582 Kbps
Movie name : Шерлок Холмс: гра тіней / Sherlock Holmes: A Game of Shadows (2011) 720p-mini -=UAGet=-
Encoded date : UTC 2012-05-04 21:26:46
Writing application : mkvmerge v4.8.0 ('I Got The...') built on Aug 22 2011 13:16:28
Writing library : libebml v1.2.0 + libmatroska v1.1.0

Video
ID : 1
Format : AVC
Format/Info : Advanced Video Codec
Format profile : [email protected]
Format settings, CABAC : Yes
Format settings, ReFrames : 3 frames
Codec ID : V_MPEG4/ISO/AVC
Duration : 2h 8mn
Bit rate : 3 100 Kbps
Width : 1 280 pixels
Height : 528 pixels
Display aspect ratio : 2.40:1
Frame rate mode : Variable / Variable
Frame rate : 23.976 fps
Color space : YUV
Chroma subsampling : 4:2:0
Bit depth : 8 bits
Scan type : Progressive
Bits/(Pixel*Frame) : 0.191
Stream size : 2.75 GiB (86%)
Title : Шерлок Холмс: гра тіней 720p-mini -=UAGet=-
Writing library : core 112
Encoding settings : cabac=1 / ref=4 / deblock=1:-2:-1 / analyse=0x3:0x133 / me=umh / subme=10 / psy=1 / psy_rd=1.10:0.00 / mixed_ref=1 / me_range=24 / chroma_me=1 / trellis=2 / 8x8dct=1 / cqm=0 / deadzone=21,11 / fast_pskip=1 / chroma_qp_offset=-2 / threads=2 / sliced_threads=0 / nr=0 / decimate=0 / interlaced=0 / constrained_intra=0 / bframes=3 / b_pyramid=1 / b_adapt=2 / b_bias=0 / direct=3 / weightb=1 / open_gop=0 / weightp=2 / keyint=240 / keyint_min=23 / scenecut=40 / intra_refresh=0 / rc_lookahead=40 / rc=2pass / mbtree=1 / bitrate=3100 / ratetol=1.0 / qcomp=0.60 / qpmin=3 / qpmax=51 / qpstep=4 / cplxblur=20.0 / qblur=0.5 / ip_ratio=1.40 / aq=1:1.10
Default : Yes
Forced : No
Color primaries : BT.709-5, BT.1361, IEC 61966-2-4, SMPTE RP177
Transfer characteristics : BT.709-5, BT.1361
Matrix coefficients : BT.709-5, BT.1361, IEC 61966-2-4 709, SMPTE RP177

Audio
ID : 2
Format : AC-3
Format/Info : Audio Coding 3
Mode extension : CM (complete main)
Format settings, Endianness : Big
Codec ID : A_AC3
Duration : 2h 8mn
Bit rate mode : Constant
Bit rate : 448 Kbps
Channel(s) : 6 channels
Channel positions : Front: L C R, Side: L R, LFE
Sampling rate : 48.0 KHz
Bit depth : 16 bits
Compression mode : Lossy
Stream size : 413 MiB (13%)
Title : Українська (дубльована)
Language : Ukrainian
Default : Yes
Forced : No

Text
ID : 3
Format : UTF-8
Codec ID : S_TEXT/UTF8
Codec ID/Info : UTF-8 Plain Text
Title : Українські (форсовані) UTF8
Language : Ukrainian
Default : Yes
Forced : No
Скріншоти




Реліз:
Особиста оцінка: 8 - мені сподобалося


 Трекер:    Зареєстрований   

Завантажити / скачати фільм українською



відео для новачків



 Зареєстрований:   2012-05-07 11:23
 Розмір:   3.22 GB 
 Оцінка фільму:   9.5/10 (Голосів: 54)
   
Antrakos 
Відео Гуртом - субтитрування
Відео Гуртом - субтитрування


З нами з: 31.01.12
Востаннє: 09.12.16
Повідомлень: 147

2012-05-10 16:53  
Drool написано:
Шерлок Холмс: Гра тіней / Sherlock Holmes: A Game of Shadows (2011) 720p

braveboy 
Відео Гуртом - команда HD
Відео Гуртом - команда HD


З нами з: 15.06.10
Востаннє: 29.10.16
Повідомлень: 958

2012-05-11 06:23  
Drool написано:
мова: українська | UTF8


| UTF8 прибери

Drool 
VIP


З нами з: 17.04.10
Востаннє: 10.12.16
Повідомлень: 1270

2012-05-11 08:03  
braveboy написано:
| UTF8 прибери

Прибрати то не важко, а потім буде стогін, що "кракозябри"? Так хоч будуть знати що треба виставити потрібне кодування.

Додано через 1 годину 10 хвилин 6 секунд:

Antrakos написано:
Drool написано:
Шерлок Холмс: Гра тіней / Sherlock Holmes: A Game of Shadows (2011) 720p

Дякую, бездумно копіпастив з сусідньої роздачі.

braveboy 
Відео Гуртом - команда HD
Відео Гуртом - команда HD


З нами з: 15.06.10
Востаннє: 29.10.16
Повідомлень: 958

2012-05-11 21:27  
Drool


всерівно потрібно прибрати і також прибери

Drool написано:
тип: форсовані, програмні (м'які)

Drool 
VIP


З нами з: 17.04.10
Востаннє: 10.12.16
Повідомлень: 1270

2012-05-11 23:34  
Ну що ж, будемо надіятися, що люди дивляться MediaInfo...
Seriy100293 
VIP


З нами з: 17.08.11
Востаннє: 04.09.16
Повідомлень: 307

2012-06-04 22:02  
А що означає UTF8?
Drool 
VIP


З нами з: 17.04.10
Востаннє: 10.12.16
Повідомлень: 1270

2012-06-07 20:01  
Seriy100293 написано:
А що означає UTF8?
Кодування субтитрів. Якщо виставити не правильне кодування - замість субтитрів побачите ієрогліфи.
Seriy100293 
VIP


З нами з: 17.08.11
Востаннє: 04.09.16
Повідомлень: 307

2012-06-15 17:29  
А як його виставляти?
Drool 
VIP


З нами з: 17.04.10
Востаннє: 10.12.16
Повідомлень: 1270

2012-06-19 20:38  
Seriy100293 написано:
А як його виставляти?

Якщо відеопрогравач адекватний, а не медіаплейер, то там повинно це налаштовуватись.

kozakandriy2012 
Частий відвідувач


З нами з: 02.02.12
Востаннє: 09.12.16
Повідомлень: 30

2012-10-13 20:45  
класссс))
Ваш часовий пояс: GMT + 2 Години

Нова тема   Відповісти