Завантажити та скачати торренти українською


Бойовий кінь / War Horse (2011) 1080p Ukr/Eng | Sub Ukr/Eng

Нові коментарі

Нова тема   Відповісти
Автор Повідомлення
ratbol 
Модератор HD


З нами з: 03.02.09
Востаннє: 09.12.16
Повідомлень: 1088

2012-05-07 00:04  
Бойовий кінь / War Horse (2011) 1080p Ukr/Eng | Sub Ukr/Eng


« Separated by war. Tested by battle. Bound by friendship. »


Жанр: драма, історичний, про війну
Країна: США



Кіностудія / кінокомпанія: DreamWorks SKG (as DreamWorks Pictures), Reliance Entertainment, Amblin Entertainment, Kennedy/Marshall Company, Touchstone Pictures
Режисер: Стівен Спілберг (Steven Spielberg)
Актори: Джеремі Ірвін (Jeremy Irvine), Пітер Муллан (Peter Mullan), Емілі Вотсон (Emily Watson), Нілс Ареструп (Niels Arestrup), Бенедікт Кумбербатч (Benedict Cumberbatch) та інші.

Сюжет:
Історія неймовірної дружби юнака Альберта і коня Джої.
Коли починається Перша Світова, і Джої відправляють разом із кавалерійським полком на поля битв Франції, Альберт, не зважаючи на дуже юний для військової служби вік, все одно йде на фронт, щоб знайти і врятувати друга.


Тривалість: 02:26:39
Якість: (EbP)
Відео:
кодек:
розмір кадру: 1920 х 800
бітрейт: 14.2 Мбіт/с

Аудіо # 1:
мова: українська
переклад: професійний дубльований, Blu-ray
кодек: 5.1
бітрейт: 640 Кбіт/с

Аудіо # 2:
мова: англійська
переклад: оригінал
кодек: 5.1
бітрейт: 1510 Кбіт/с

Субтитри # 1-2:
мова: українська (форсовані та повні)
тип: програмні (м'які)
формат: *.srt

Субтитри # 2:
мова: англійська
тип: програмні (м'які)
формат: *.srt


• Збережено оригінальні розділи

MediaInfo
Код:
General
Unique ID                        : 175945381217520866309112641779205621227 (0x845DD90B25B8E16198506519095F45EB)
Complete name                    : E:\Бойовий кінь\War Horse (2011) [Ukr, Eng] 1080p [Hurtom].mkv
Format                           : Matroska
Format version                   : Version 2
File size                        : 17.1 GiB
Duration                         : 2h 26mn
Overall bit rate                 : 16.7 Mbps
Movie name                       : War Horse (2011)
Encoded date                     : UTC 2012-05-06 21:36:16
Writing application              : mkvmerge v5.4.0 ('Piper') built on Mar 10 2012 13:34:39
Writing library                  : libebml v1.2.3 + libmatroska v1.3.0

Video
ID                               : 1
Format                           : AVC
Format/Info                      : Advanced Video Codec
Format profile                   : [email protected]
Format settings, CABAC           : Yes
Format settings, ReFrames        : 5 frames
Codec ID                         : V_MPEG4/ISO/AVC
Duration                         : 2h 26mn
Bit rate                         : 14.2 Mbps
Width                            : 1 920 pixels
Height                           : 800 pixels
Display aspect ratio             : 2.40:1
Frame rate                       : 23.976 fps
Color space                      : YUV
Chroma subsampling               : 4:2:0
Bit depth                        : 8 bits
Scan type                        : Progressive
Bits/(Pixel*Frame)               : 0.386
Stream size                      : 14.6 GiB (85%)
Title                            : EbP
Writing library                  : core 120 r2146 bcd41db
Encoding settings                : cabac=1 / ref=5 / deblock=1:-3:-3 / analyse=0x3:0x113 / me=umh / subme=9 / psy=1 / psy_rd=1.00:0.00 / mixed_ref=1 / me_range=16 / chroma_me=1 / trellis=2 / 8x8dct=1 / cqm=0 / deadzone=21,11 / fast_pskip=0 / chroma_qp_offset=-2 / threads=6 / sliced_threads=0 / nr=0 / decimate=0 / interlaced=0 / bluray_compat=0 / constrained_intra=0 / bframes=7 / b_pyramid=2 / b_adapt=2 / b_bias=0 / direct=3 / weightb=1 / open_gop=0 / weightp=2 / keyint=250 / keyint_min=23 / scenecut=40 / intra_refresh=0 / rc=crf / mbtree=0 / crf=16.5 / qcomp=0.60 / qpmin=0 / qpmax=69 / qpstep=4 / ip_ratio=1.40 / pb_ratio=1.30 / aq=1:0.90
Language                         : English
Default                          : No
Forced                           : No

Audio #1
ID                               : 2
Format                           : AC-3
Format/Info                      : Audio Coding 3
Mode extension                   : CM (complete main)
Codec ID                         : A_AC3
Duration                         : 2h 26mn
Bit rate mode                    : Constant
Bit rate                         : 640 Kbps
Channel(s)                       : 6 channels
Channel positions                : Front: L C R, Side: L R, LFE
Sampling rate                    : 48.0 KHz
Bit depth                        : 16 bits
Compression mode                 : Lossy
Stream size                      : 671 MiB (4%)
Title                            : 5.1 [640 Kbps] — Дубляж, Blu-ray
Language                         : Ukrainian
Default                          : Yes
Forced                           : No

Audio #2
ID                               : 3
Format                           :
Format/Info                      : Digital Theater Systems
Codec ID                         : A_DTS
Duration                         : 2h 26mn
Bit rate mode                    : Constant
Bit rate                         : 1 510 Kbps
Channel(s)                       : 6 channels
Channel positions                : Front: L C R, Side: L R, LFE
Sampling rate                    : 48.0 KHz
Bit depth                        : 24 bits
Compression mode                 : Lossy
Stream size                      : 1.55 GiB (9%)
Title                            : 5.1 [1510 Kbps] — оригінал
Language                         : English
Default                          : No
Forced                           : No

Text #1
ID                               : 4
Format                           : UTF-8
Codec ID                         : S_TEXT/UTF8
Codec ID/Info                    : UTF-8 Plain Text
Title                            : Форсовані
Language                         : Ukrainian
Default                          : Yes
Forced                           : No

Text #2
ID                               : 5
Format                           : UTF-8
Codec ID                         : S_TEXT/UTF8
Codec ID/Info                    : UTF-8 Plain Text
Language                         : Ukrainian
Default                          : No
Forced                           : No

Text #3
ID                               : 6
Format                           : UTF-8
Codec ID                         : S_TEXT/UTF8
Codec ID/Info                    : UTF-8 Plain Text
Language                         : English
Default                          : No
Forced                           : No

Menu
00:00:00.000                     : en:Chapter 01
00:04:31.104                     : en:Chapter 02
00:09:31.321                     : en:Chapter 03
00:13:57.003                     : en:Chapter 04
00:17:45.231                     : en:Chapter 05
00:22:29.098                     : en:Chapter 06
00:29:16.963                     : en:Chapter 07
00:34:17.180                     : en:Chapter 08
00:37:49.934                     : en:Chapter 09
00:41:30.196                     : en:Chapter 10
00:47:19.003                     : en:Chapter 11
00:51:48.814                     : en:Chapter 12
00:56:03.151                     : en:Chapter 13
01:01:19.175                     : en:Chapter 14
01:04:04.048                     : en:Chapter 15
01:05:51.030                     : en:Chapter 16
01:14:04.565                     : en:Chapter 17
01:18:01.010                     : en:Chapter 18
01:25:34.379                     : en:Chapter 19
01:29:48.008                     : en:Chapter 20
01:35:29.682                     : en:Chapter 21
01:45:23.275                     : en:Chapter 22
01:51:06.660                     : en:Chapter 23
02:00:06.157                     : en:Chapter 24
02:07:38.276                     : en:Chapter 25
02:15:12.271                     : en:Chapter 26
02:18:10.949                     : en:Chapter 27





Джерело:


 Трекер:    Зареєстрований   

Завантажити / скачати фільм українською



відео для новачків



 Зареєстрований:   2012-05-07 00:04
 Розмір:   17.1 GB 
 Оцінка фільму:   9.4/10 (Голосів: 7)
   
Інші релізи
   Бойовий кінь / War Horse (2011) patriot2305  1 / 0   1.65 GB   2012-05-26 16:59 
   Бойовий кінь / War Horse (2011) 720p Ukr/Eng | Sub Ukr/Eng Dim-ON  4 / 0   7.82 GB   2012-05-04 23:24 
   Бойовий кінь / War Horse (2011) AVC Ukr/Eng | Sub Eng igrik09  2 / 0   2.91 GB   2012-04-21 02:15 
   Бойовий кінь / War Horse (2011) |Ліцензія sstonecold1  10 / 0   2.18 GB   2012-04-18 18:23 
DiGen 
Модератор HD та координатор Команди HD
Модератор HD та координатор Команди HD


З нами з: 12.11.09
Востаннє: 24.06.13
Повідомлень: 1452

2012-05-07 15:53  
Прохання дописати, що збережені оригінальні чаптери.
ratbol 
Модератор HD


З нами з: 03.02.09
Востаннє: 09.12.16
Повідомлень: 1088

2012-05-07 16:44  
DiGen
Дописав, але хіба це так суттєво.
Той кому вони потрібні знайде їх у звіті.

Yaroslavovy4 
Свій


З нами з: 25.03.12
Востаннє: 07.12.16
Повідомлень: 96

2013-03-08 20:58  
дайте вогню........................
Rami 
Частий відвідувач


З нами з: 16.06.10
Востаннє: 06.12.16
Повідомлень: 29

2013-03-09 17:52  
"Benedict Cumberbatch", по-моєму, перекладається як Бенедикт Камбербетч.. виправте, а то стьоб над іменем виходить..
Ваш часовий пояс: GMT + 2 Години

Нова тема   Відповісти