Завантажити та скачати торренти українською


Нецілована / Never Been Kissed (1999) 1080p Ukr/Eng | sub Ukr/Eng

Нові коментарі

Нова тема   Відповісти
Автор Повідомлення
urij546724 
Відео Гуртом - фільмокрай
Відео Гуртом - фільмокрай


З нами з: 16.03.10
Востаннє: 08.12.16
Повідомлень: 5222

2012-05-06 23:06  
Нецілована / Never Been Kissed (1999) 1080p Ukr/Eng | sub Ukr/Eng


Слоган:
«She's never been hip. Never been cool. Never been in... Until now.»


Жанр: комедія, драма, романтичний
Країна: США ()



Кіностудія / кінокомпанія: Fox 2000 Pictures, Bushwood Pictures, Flower Films (II)
Режисер: Раджа Госнелл (Raja Gosnell)
Актори: Дрю Беррімор (Drew Barrymore), Девід Аркетт (David Arquette), Майкл Вартан (Michael Vartan), Моллі Шеннон (Molly Shannon), Джон Сі Райлі (John C. Reilly), Геррі Маршалл (Garry Marshall), Шон Вейлен (Sean Whalen), Кресс Вільямс (Cress Williams), Октавія Спенсер (Octavia Spencer), Сара ДеВісентіс (Sarah DeVincentis)
Усі актори та їх фото:
Дрю Беррімор (Drew Barrymore), Девід Аркетт (David Arquette), Майкл Вартан (Michael Vartan), Моллі Шеннон (Molly Shannon), Джон Сі Райлі (John C. Reilly), Геррі Маршалл (Garry Marshall), Шон Вейлен (Sean Whalen), Кресс Вільямс (Cress Williams), Октавія Спенсер (Octavia Spencer), Сара ДеВісентіс (Sarah DeVincentis), Аллен Коверт (Allen Covert), Рок Райзер (Rock Reiser), Девід Доуті (David Doty), Деррік Морган (Derek Morgan), Кетлін Маршалл (Kathleen Marshall), Дженні Бікс (Jenny Bicks), Лілі Собескі (Leelee Sobieski), Джеремі Джордан (Jeremy Jordan), Джессіка Альба (Jessica Alba), Марлі Шелтон (Marley Shelton), Джордан Ледд (Jordan Ladd), Кеті Ленсдейл (Katie Lansdale), Брендон Вільямс (Branden Williams), Джеймс Франко (James Franco), Грегорі Спорледер (Gregory Sporleder), Марта Хекетт (Martha Hackett), Дженніфер Парсонс (Jennifer Parsons), Ендрю Вілсон (Andrew Wilson), Джузеппе Ендрюс (Giuseppe Andrews), Алекс Соловітц (Alex Solowitz), Ніша Троут (Niesha Trout), Чад Хейвуд (Chad Haywood), Корі Хардрікт (Cory Hardrict), Чад Тодхантер (Chad Todhunter), Деніел Луіс Рівас (Daniel Louis Rivas), Марк Едвардс (Marq Edwards), Денні Кірквуд (Denny Kirkwood), Марісса Джерет Винокур (Marissa Jaret Winokur), Кармен Лівелін (Carmen Llywelyn), Сара Доунінг (Sara Downing), Майк Мойер (Mike Moyer), Стівен Вільд (Steven Wilde), Майя МакЛафлін (Maya McLaughlin), Девід Дуглас (David Douglas), Расселл Боббітт (Russell Bobbitt), Тара Скай (Tara Skye), Марк Аллен (Mark Allen), Конор О'Ніл (Conor O'Neil), Джо Очман (Joe Ochman), Дон Снелл (Don Snell), Джейсон В'єссброд (Jason Weissbrod), Тінслі Граймс (Tinsley Grimes), Джошуа Фіцджералд (Joshua Fitzgerald), Аманда Вільшурст (Amanda Wilmshurst), Вільям Еберс (William Abers), Уліс Белла (Ulises Bella), Хосе Еспіноза (Jose Espinosa), Лукас МакФадден (Lucas MacFadden), Вільям Марруфо (William Marrufo), Рауль Пачеко (Raul Pacheco), Джастін Порі (Justin Poree), Асдрубаль Сьєрра (Asdrubal Sierra), Чарльз Стюарт (Charles Stewart), Джиро Ямагучі (Jiro Yamaguchi), Ендрю Агіляр (Andrew Aguilar), А. Девід Берлі (A. David Burleigh), Прісцилла Корі (Priscilla Cory), Кевін Скотт Грір (Kevin Scott Greer), Філ Хоун (Phil Hawn), Кельвін Гілмор (Fabio May), Біллі МакЛеллан (Billy McLellan), Трейсі Рейнер (Tracy Reiner), Марселло Робінсон (Marcello Robinson), Гаррет Вільямс (Garrett Williams), Данні Заватський (Danny Zavatsky)








Сюжет:
Джозі Геллер - наймодніша журналістка в редакції великої газети. Ніхто її всерйоз не сприймає як би вона не старалася. Особисте життя теж не налагоджується: за двадцять п'ять років жодного хлопця.

Але незважаючи ні на що Джозі добивається права зробити репортаж про середню школу. Але репортаж повинен описувати школу зсередини, очима школяра. А тепер уявіть собі що чекає двадцятип'ятилітню відмінницю, яка виглядає на сімнадцять, з повною відсутністю життєвого досвіду і навичок інтимного спілкування в старшому класі звичайної школи.


Бюджет: 25 000 000 доларів
Збори в США: 55 474 756 доларів
Збори у світі: 84 565 230 доларів
Назва фільму у інших країнах
Jamás besada
Аргентина / Мексика / Перу


Collège attitude
Франція / Швеція (Французька назва)


Never Been Kissed
Данія / Норвегія


Nunca Fui Beijada
Бразилія / Португалія


A bambanő
Угорщина


De me filisan pote
Греція


Gerçek öpücük
Туречина


Mai stata baciata
Італія


Nikad se nisam poljubila
Хорватія


Nunca me han besado
Іспанія


Pakko olla in
Фінляндія


Ten pierwszy raz
Польща


Ukysset
Норвегія


Un baiser, enfin!
Канада (французька назва)


Ungeküsst
Німеччина


Нецелованна
Росія
Чи знаєте ви, що...
1) Дрю Беррімор набрала 4 кілограми під час зйомок фільму через проблеми з харчуванням.
Нагороди і номінації
Премія каналу «MTV», 2000 рік
Номінації (2):
1) Кращий поцілунок (Дрю Беррімор, Майкл Вартан)
2) Краща жіноча роль (Дрю Беррімор)
Media info
Format : Matroska
Format version : Version 2
File size : 10.1 GiB
Duration : 1h 47mn
Overall bit rate : 13.5 Mbps
Movie name : Never Been Kissed (1999) [ukr.Noviy_eng_AC3_5.1_sub] 1080p [Hurtom] by urij546724
Encoded date : UTC 2012-05-08 16:00:08
Writing application : mkvmerge v2.9.7 ('Tenderness') built on Jul 1 2009 18:43:35
Writing library : libebml v0.7.7 + libmatroska v0.8.1

Video
ID : 1
Format : AVC
Format/Info : Advanced Video Codec
Format profile : [email protected]
Format settings, CABAC : Yes
Format settings, ReFrames : 4 frames
Codec ID : V_MPEG4/ISO/AVC
Duration : 1h 47mn
Bit rate : 10.5 Mbps
Width : 1 920 pixels
Height : 792 pixels
Display aspect ratio : 2.40:1
Frame rate : 23.976 fps
Color space : YUV
Chroma subsampling : 4:2:0
Bit depth : 8 bits
Scan type : Progressive
Bits/(Pixel*Frame) : 0.288
Stream size : 7.68 GiB (76%)
Title : Never Been Kissed (1999) [ukr.Noviy_eng_AC3_5.1_sub] 1080p [Hurtom] by urij546724
Writing library : core 120 r2120 0c7dab9
Encoding settings : cabac=1 / ref=4 / deblock=1:-2:-2 / analyse=0x3:0x113 / me=umh / subme=10 / psy=1 / psy_rd=1.20:0.20 / mixed_ref=1 / me_range=32 / chroma_me=1 / trellis=2 / 8x8dct=1 / cqm=0 / deadzone=21,11 / fast_pskip=0 / chroma_qp_offset=-3 / threads=6 / sliced_threads=0 / nr=0 / decimate=0 / interlaced=0 / bluray_compat=0 / constrained_intra=0 / bframes=5 / b_pyramid=2 / b_adapt=2 / b_bias=0 / direct=3 / weightb=1 / open_gop=0 / weightp=2 / keyint=250 / keyint_min=2 / scenecut=40 / intra_refresh=0 / rc_lookahead=72 / rc=2pass / mbtree=1 / bitrate=10496 / ratetol=1.0 / qcomp=0.60 / qpmin=10 / qpmax=51 / qpstep=4 / cplxblur=20.0 / qblur=0.5 / vbv_maxrate=38000 / vbv_bufsize=38000 / nal_hrd=none / ip_ratio=1.40 / aq=1:1.00
Language : English
Default : Yes
Forced : No

Audio #1
ID : 2
Format :
Format/Info : Digital Theater Systems
Codec ID : A_DTS
Duration : 1h 47mn
Bit rate mode : Constant
Bit rate : 1 510 Kbps
Channel(s) : 6 channels
Channel positions : Front: L C R, Side: L R, LFE
Sampling rate : 48.0 KHz
Bit depth : 24 bits
Compression mode : Lossy
Stream size : 1.13 GiB (11%)
Title : Українська доріжка
Language : Ukrainian
Default : Yes
Forced : No

Audio #2
ID : 3
Format :
Format/Info : Digital Theater Systems
Codec ID : A_DTS
Duration : 1h 47mn
Bit rate mode : Constant
Bit rate : 1 510 Kbps
Channel(s) : 6 channels
Channel positions : Front: L C R, Side: L R, LFE
Sampling rate : 48.0 KHz
Bit depth : 24 bits
Compression mode : Lossy
Stream size : 1.13 GiB (11%)
Title : Англійська доріжка
Language : English
Default : No
Forced : No

Text #1
ID : 4
Format : UTF-8
Codec ID : S_TEXT/UTF8
Codec ID/Info : UTF-8 Plain Text
Title : Українські субтитри
Language : Ukrainian
Default : Yes
Forced : No

Text #2
ID : 5
Format : UTF-8
Codec ID : S_TEXT/UTF8
Codec ID/Info : UTF-8 Plain Text
Title : Англійські субтитри
Language : English
Default : No
Forced : No
Тривалість: 01:47:28
Якість: 1080p
Відео:
кодек:
розмір кадру: 1920 х 792
бітрейт: ~ 10.5 мб/с
частота кадрів: 23.976 к/с (fps)

Аудіо #1:
мова: українська
переклад: двоголосий закадровий
кодек: 5.1
бітрейт: 1536 кб/с
запис звуку з каналу:

Аудіо #2:
мова: англійська
переклад: оригінал
кодек: 5.1
бітрейт: 1536 кб/с

Субтитри #1:
мова: українська
тип: програмні (м'які)
формат: *.srt
джерело:

Субтитри #2:
мова: англійська
тип: програмні (м'які)
формат: *.srt

Скріншоти:


Трейлери:

Семпл
Джерело 1_________Джерело 2_________Джерело 3_________Джерело 4
У випадку, якщо з усіх джерел семпл видалять, прохання повідомити мені у ПРИВАТ


Подяка:

1. Пану ua2004 за запис звуку з ТБ.
2. Пану Gelios за українізацію постера.


Реліз створено: &

Особиста оцінка: Не дивився.

Реліз не зберігатиму, видалю після появи кількох сідів.


Срібний реліз (на рейтинг впливає 50% завантаженого)
 Трекер:    Зареєстрований   

Завантажити / скачати фільм українською



відео для новачків



 Зареєстрований:   2012-05-09 11:06
 Розмір:   10.15 GB 
 Оцінка фільму:   5.5/10 (Голосів: 6)
 Прохання залишати коментарі і не тікати з роздачі.
   
Інші релізи
Ваш часовий пояс: GMT + 2 Години

Нова тема   Відповісти