Завантажити та скачати торренти українською


Stoned Jesus - First Communion (2010) [FLAC] | Stoner Metal

Нові коментарі

Нова тема   Відповісти
Автор Повідомлення
ssTAss 
Модератор музики


З нами з: 05.07.08
Востаннє: 11.12.16
Повідомлень: 10959

2012-05-02 23:22  
Stoned Jesus - First Communion (2010) [FLAC] | Stoner Metal

Stoned Jesus - First Communion (2010) [FLAC] | Stoner Metal


Стиль: Stoner Metal
Країна, місто: Україна, Київ
Сайти:
Видавець: Solitude Prod (Росія)
Виконавці:
Ігор "Prog-Jester" Сидоренко (Krobak, Funeral of the Sun, Voida, Arlekin) -вокал, гітара
Микола "Kobold" Соляр - бас-гітара
Олександр Сірий (Easymuffin Midnight Melodies Collective, екс-Coala Pascal) - барабани

+ запрошені музиканти ("гостьові" партії соло-гітари)
Пісні:
    01. Occult
    02. Red Wine
    03. Black Woods
    04. Falling Apart
log
Exact Audio Copy V0.99 prebeta 5 from 4. May 2009

Отчёт EAC об извлечении, выполненном 9. ноября 2010, 8:10

Stoned Jesus / First Communion

Дисковод: _NEC DVD_RW ND-3520A Adapter: 0 ID: 0

Режим чтения : Достоверность
Использование точного потока : Да
Отключение кэша аудио : Да
Использование указателей C2 : Нет

Коррекция смещения при чтении : 48
Способность читать области Lead-in и Lead-out : Нет
Заполнение пропущенных сэмплов тишиной : Да
Удаление блоков с тишиной в начале и конце : Нет
При вычислениях CRC использовались нулевые сэмплы : Да
Интерфейс : Встроенный Win32-интерфейс для Win NT/2000

Выходной формат : Пользовательский кодировщик
Выбранный битрейт : 128 kBit/s
Качество : Высокий
Добавление ID3-тэга : Нет
Утилита сжатия : C:\Program Files (x86)\FLAC\flac.exe
Дополнительные параметры : -8 -V %s

TOC извлечённого CD

Трек | Старт | Длительность | Начальный сектор | Конечный сектор
---------------------------------------------------------------------
1 | 0:00.00 | 10:00.58 | 0 | 45057
2 | 10:00.58 | 5:04.74 | 45058 | 67931
3 | 15:05.57 | 11:45.65 | 67932 | 120871
4 | 26:51.47 | 13:25.51 | 120872 | 181297

Характеристики диапазона извлечения и сообщения об ошибках

Выбранный диапазон

Имя файла E:\Temp Documents\из И-Нета\TORRENTS\Раздача\Stoned Jesus - First Communion.wav

Пиковый уровень 100.0 %
Качество диапазона 100.0 %
CRC теста 79498AAC
CRC копии 79498AAC
Копирование... OK

Ошибок не произошло

AccurateRip: сводка

Трек 1 точное извлечение (доверие 2) [BE536806]
Трек 2 точное извлечение (доверие 2) [C4DD3FE3]
Трек 3 точное извлечение (доверие 2) [E86A2D08]
Трек 4 точное извлечение (доверие 2) [AA078CD7]

Все треки извлечены точно

Конец отчёта
fooCDtect
fooCDtect - foobar2000 + auCDtect, baralgin.

auCDtect: CD records authenticity detector, version 0.8.2
Copyright (c) 2004 Oleg Berngardt. All rights reserved.
Copyright (c) 2004 Alexander Djourik. All rights reserved.

mode: 0

===========================================
Track: 01 - Occult
Quality: MPEG 95%
===========================================
Track: 02 - Red Wine
Quality: CDDA 100%
===========================================
Track: 03 - Black Woods
Quality: CDDA 100%
===========================================
Track: 04 - Falling Apart
Quality: CDDA 100%
===========================================
Тривалість: 00:40:17
Мова: англійська
Аудіо-кодек: FLAC
Бітрейт: 902 кб/с
Джерело: інший трекер
Додаткова інформація:
Дебютний повноформатний альбом ще однієї групи Ігоря Сидоренка, яка починалась як сайд-проект, але досить швидко знайшла живий склад.
Одне слово, дебютний альбом вдався. Настільки, що й зарубіжні слухачі, більш досвідчені в розмаїтті стоунер-думової сцени, швидше за все, гідно його оцінять, адже головні складові успіху - хітовий матеріал і власне обличчя - у Stoned Jesus точно є.

(c) Neformat.com.ua


Якщо Ви справді бажаєте підтримати українське - після прослуховування, якщо музика вам сподобалась,
придбайте ліцензійний диск.
Підтримаймо вітчизняних виконавців!


Срібний реліз (на рейтинг впливає 50% завантаженого)
 Трекер:    Зареєстрований   

Завантажити / скачати українську музику



відео для новачків



 Зареєстрований:   2012-05-02 23:22
 Розмір:   269 MB 
 Оцінка музики:   7.4/10 (Голосів: 11)
   
rooster 
Відео Гуртом - фільмокрай
Відео Гуртом - фільмокрай


З нами з: 23.04.09
Востаннє: 04.12.16
Повідомлень: 1328

2012-11-06 23:09  
Нарешті у нас з'явився (за останні 2-3 роки) такий рок-гурт, який реально можна слухати й який грає реально якісну музику!
Ваш часовий пояс: GMT + 2 Години

Нова тема   Відповісти