Завантажити та скачати торренти українською


Stoned Jesus - Seven Thunders Roar (2012) [FLAC] | Stoner Metal

Нові коментарі

Нова тема   Відповісти
Останній раз роздавалося Sloneniatko (2016-12-03)
Автор Повідомлення
ssTAss 
Модератор музики


З нами з: 05.07.08
Востаннє: 03.12.16
Повідомлень: 10932

2012-05-02 22:17  
Stoned Jesus - Seven Thunders Roar (2012) [FLAC] | Stoner Metal

Stoned Jesus - Seven Thunders Roar (2012) [FLAC] | Stoner Metal


Стиль: Stoner Metal
Країна, місто: Україна, Київ
Сайти:
Видавець: Інша музика / Moon Records
Виконавці:
Ігор "Prog-Jester" Сидоренко (Krobak, Funeral of the Sun, Voida, Arlekin) -вокал, гітара
Микола "Kobold" Соляр - бас-гітара
Олександр Сірий (Easymuffin Midnight Melodies Collective, екс-Coala Pascal) - барабани
Пісні:
    1. Bright Like the Morning
    2. Electric Mistress
    3. Indian
    4. I'm the Mountain
    5. Stormy Monday
log

Exact Audio Copy V1.0 beta 3 from 29. August 2011

EAC extraction logfile from 11. April 2012, 13:50

Stoned Jesus / Seven Thunders Roar

Used drive : TSSTcorpCDDVDW SH-222AB Adapter: 1 ID: 0

Read mode : Secure
Utilize accurate stream : Yes
Defeat audio cache : Yes
Make use of C2 pointers : No

Read offset correction : 6
Overread into Lead-In and Lead-Out : No
Fill up missing offset samples with silence : Yes
Delete leading and trailing silent blocks : No
Null samples used in CRC calculations : Yes
Used interface : Native Win32 interface for Win NT & 2000

Used output format : User Defined Encoder
Selected bitrate : 128 kBit/s
Quality : High
Add ID3 tag : No
Command line compressor : D:\PROGRAMS\Exact Audio Copy\Flac\flac.exe

TOC of the extracted CD

Track | Start | Length | Start sector | End sector
---------------------------------------------------------
1 | 0:00.00 | 8:44.71 | 0 | 39370
2 | 8:44.71 | 9:23.32 | 39371 | 81627
3 | 18:08.28 | 5:01.74 | 81628 | 104276
4 | 23:10.27 | 16:03.70 | 104277 | 176571
5 | 39:14.22 | 8:42.71 | 176572 | 215792

Range status and errors

Selected range

Filename D:\MY_MUSIC\Stoned Jesus - Seven Thunders Roar.wav

Peak level 100.0 %
Extraction speed 7.5 X
Range quality 100.0 %
Test CRC EDC886F5
Copy CRC EDC886F5
Copy OK

No errors occurred

AccurateRip summary

Track 1 not present in database
Track 2 not present in database
Track 3 not present in database
Track 4 not present in database
Track 5 not present in database

None of the tracks are present in the AccurateRip database

End of status report

==== Log checksum B90FA89FA74F5BAED9F4E6388DE8F19EE100AE9F88B3886A38AD9A48906BB35F ====
fooCdtect
fooCDtect - foobar2000 + auCDtect, baralgin.

auCDtect: CD records authenticity detector, version 0.8.2
Copyright (c) 2004 Oleg Berngardt. All rights reserved.
Copyright (c) 2004 Alexander Djourik. All rights reserved.

mode: 0

===========================================
Track: 01 - Bright Like The Morning
Quality: CDDA 100%
===========================================
Track: 02 - Mistress
Quality: CDDA 99%
===========================================
Track: 03 - Indian
Quality: CDDA 100%
===========================================
Track: 04 - I'm The Mountain
Quality: CDDA 99%
===========================================
Track: 05 - Monday
Quality: CDDA 99%
===========================================
Тривалість: 00:47:57
Мова: англійська
Аудіо-кодек: FLAC
Бітрейт: 875 кб/с
Джерело: інтернет
Додаткова інформація:
Знаючи, що автором проекту "Stoned Jesus" є Ігор Сидоренко aka Хробак, чий диск "The Diary of the Missed One" по-справжньому порадував кілька років тому – можна було чекати на щось неординарне. І приємно, що "Stoned Jesus" не розчарував: новий альбом (5 композицій – але майже 50 хвилин!) вийшов дійсно цікавим, дуже атмосферним. Не в плані легкості – а в плані вміння створити особливу атмосферу. Це дещо нове, народжене завдяки глибокому зануренню в старе – мабуть, саме тому в прес-релізі було сказано: "Stoned Jesus грають вінтажний рок в кращих традиціях 70-х, черпаючи натхнення не тільки з важкого блюзу, раннього прогрессиву та класичної психоделії, а й навіть з гранжу, стонеру і пост-хардкору 90-х". І справа не лише в музиці – яка, втім, заворожує свободою в жонглюванні відблисками старих стилів. Окремо хочеться сказати про голос Ігоря Сидоренка. Він не вражає якоюсь надзвичайною потужністю – і в цьому немає потреби. Тут йдеться про інше. Його спів – наче пронизує час і виходить за його межі. У самій інтонації, манері виконання є щось таке магічне, що змушує згадати про класиків британського та американського року, починаючи десь від 1960-х років – і змушує повірити, що навіть сьогодні дехто здатен відчути і почути неземну музику в хащах земного досвіду...


Якщо Ви справді бажаєте підтримати українське - після прослуховування, якщо музика вам сподобалась,
придбайте ліцензійний диск.
Підтримаймо вітчизняних виконавців!


Срібний реліз (на рейтинг впливає 50% завантаженого)
 Трекер:    Зареєстрований   

Завантажити / скачати українську музику



відео для новачків



 Зареєстрований:   2012-05-02 23:06
 Розмір:   318 MB 
 Оцінка музики:   7.5/10 (Голосів: 11)
   
Kitler 
Модератор програмного забезпечення


З нами з: 22.04.11
Востаннє: 03.12.16
Повідомлень: 591

2012-05-02 22:58  
Думаю, якщо вокаліст трошки потренується, то зможе передіватися в Оззі і виступати з туром по Україні. Чомусь саме його голос нагадує мені голос Ігора Сидоренка. Музика нагадує вже щось відоме... мабуть оте:
ssTAss написано:
Це дещо нове, народжене завдяки глибокому зануренню в старе

rooster 
Відео Гуртом - фільмокрай
Відео Гуртом - фільмокрай


З нами з: 23.04.09
Востаннє: 29.11.16
Повідомлень: 1328

2012-11-06 23:15  
Я один із тих, хто купив цей диск у магазині. Взагалі, диски хороших українських музикантів я завжди стараюся купувати, а не скачувати.
Ваш часовий пояс: GMT + 2 Години

Нова тема   Відповісти