Завантажити та скачати торренти українською


Гурт "Барви Поділля" - Весілля в Шепетівці (2003) [WV] | Folk

Нові коментарі

Нова тема   Відповісти
Останній раз роздавалося sashabychok (2016-10-16)
Автор Повідомлення
ssTAss 
Модератор музики


З нами з: 05.07.08
Востаннє: 11.12.16
Повідомлень: 10954

2012-05-01 23:41  
Гурт "Барви Поділля" - Весілля в Шепетівці (2003) [WV] | Folk

Гурт "Барви Поділля" - Весілля в Шепетівці (2003) [WV] | Folk


Стиль: Folk
Країна, місто: Україна, Шепетівка
Видавець: Tip Top Music (2005)
Виконавці:
Олександр Коломиєць - аранжування, клавішні
Юрій Гаврилюк - вокал
Валентин Терновий - бек-вокал
Пісні:
    1 Марш (інструментал)
    2 Ой ти, струмочку
    3 Старій бабі все-одно
    4 В очереті заблудила
    5 Ой, у полі край дороги
    6 А я піду до дівчини
    7 Полька (інструментал)
    8 Ой, заграйте музеченьки
    9 Як то добре мати жінку
    10 Полька (інструментал)
    11 Гуцул
    12 Весілля
    13 У неділю свадьба буде
    14 Мамцю ж моя жалуй мене
log
Exact Audio Copy V1.0 beta 3 from 29. August 2011

EAC extraction logfile from 12. December 2011, 20:34

Барви Поділля / Весілля в Шепетівці

Used drive : HL-DT-STDVDRAM GH20NS10 Adapter: 3 ID: 0

Read mode : Secure
Utilize accurate stream : Yes
Defeat audio cache : Yes
Make use of C2 pointers : No

Read offset correction : 667
Overread into Lead-In and Lead-Out : No
Fill up missing offset samples with silence : Yes
Delete leading and trailing silent blocks : No
Null samples used in CRC calculations : Yes
Used interface : Native Win32 interface for Win NT & 2000

Used output format : User Defined Encoder
Selected bitrate : 896 kBit/s
Quality : High
Add ID3 tag : No
Command line compressor : C:\Program Files (x86)\Exact Audio Copy\wavpack.exe
Additional command line options : -hm %source% %dest%

TOC of the extracted CD

Track | Start | Length | Start sector | End sector
---------------------------------------------------------
1 | 0:00.00 | 1:27.66 | 0 | 6590
2 | 1:27.66 | 4:19.20 | 6591 | 26035
3 | 5:47.11 | 4:09.24 | 26036 | 44734
4 | 9:56.35 | 3:22.01 | 44735 | 59885
5 | 13:18.36 | 3:40.53 | 59886 | 76438
6 | 16:59.14 | 3:02.64 | 76439 | 90152
7 | 20:02.03 | 2:57.18 | 90153 | 103445
8 | 22:59.21 | 2:40.42 | 103446 | 115487
9 | 25:39.63 | 3:29.07 | 115488 | 131169
10 | 29:08.70 | 3:04.31 | 131170 | 145000
11 | 32:13.26 | 4:00.21 | 145001 | 163021
12 | 36:13.47 | 2:43.42 | 163022 | 175288
13 | 38:57.14 | 2:53.31 | 175289 | 188294
14 | 41:50.45 | 4:03.58 | 188295 | 206577

Range status and errors

Selected range

Filename C:\Users\Андрей\Music\Барви Поділля - Весілля в Шепетівці\Барви Поділля - Весілля в Шепетівці.wav

Peak level 100.0 %
Extraction speed 7.2 X
Range quality 100.0 %
Test CRC 81E82CD6
Copy CRC 81E82CD6
Copy OK

No errors occurred

AccurateRip summary

Track 1 not present in database
Track 2 not present in database
Track 3 not present in database
Track 4 not present in database
Track 5 not present in database
Track 6 not present in database
Track 7 not present in database
Track 8 not present in database
Track 9 not present in database
Track 10 not present in database
Track 11 not present in database
Track 12 not present in database
Track 13 not present in database
Track 14 not present in database

None of the tracks are present in the AccurateRip database

End of status report

==== Log checksum BD330EB0FBBB16B0060972DB9A9ECB6507E38D7434A13FEB308F4A7B1BC64DAF ====
tau
Гурт "Барви Поділля" - Весілля в Шепетівці (2003) [WV] | Folk
Тривалість: 00:45:54
Мова: українська, відсутня (1,7,10)
Аудіо-кодек: WavPack (iso.wv)
що це таке?

можна просто слухати в фубарі, наприклад (.cue вбудований), а можна відкрити як образ диску (змінити розширення .iso.wv на .iso і відкрити на віртуальному приводі або записати на диск)
для точнішої інформації витягнув і переклав файл [UA] README No unpacking needed to play or burn this release.txt з образу
прочитайте його перед прослуховуванням
Бітрейт: 1044 кб/с
Джерело: нетлаб
Додаткова інформація:
роздача містить вбудовані .cue, скани, логи


Якщо Ви справді бажаєте підтримати українське - після прослуховування, якщо музика вам сподобалась,
придбайте ліцензійний диск.
Підтримаймо вітчизняних виконавців!


Срібний реліз (на рейтинг впливає 50% завантаженого)
 Трекер:    Зареєстрований   

Завантажити / скачати українську музику



відео для новачків



 Зареєстрований:   2012-05-01 23:41
 Розмір:   343 MB 
 Оцінка музики:   7/10 (Голосів: 9)
   
ярий тверезенник 
VIP


З нами з: 29.01.12
Востаннє: 10.12.16
Повідомлень: 1594

2012-05-02 15:21  
Краще в mp3.
ssTAss 
Модератор музики


З нами з: 05.07.08
Востаннє: 11.12.16
Повідомлень: 10954

2012-05-02 16:26  
71vrizhiy88 написано:
Краще в mp3.

кому краще? та з лослесу (оригіналу) вже собі що завгодно можна зробити, а от навпаки ні

sashabychok 
Новенький


З нами з: 30.08.12
Востаннє: 03.01.15
Повідомлень: 1

2013-02-20 19:03  
Як би ще один альбом виложили для зкачування. Мені дуже подобається. У цього гурту є ще альбом. Якби його.
Ваш часовий пояс: GMT + 2 Години

Нова тема   Відповісти