Завантажити та скачати торренти українською


Вітаємо у Зомбіленді / Zombieland (2009) 720p Ukr/Eng | Sub Eng

Нові коментарі

Нова тема   Відповісти
Автор Повідомлення
Віктор 
Відео Гуртом - субтитрування
Відео Гуртом - субтитрування


З нами з: 09.01.10
Востаннє: 04.12.16
Повідомлень: 8663

2012-05-01 23:02  
Вітаємо у Зомбіленді / Zombieland (2009) 720p Ukr/Eng | Sub Eng

Вітаємо у Зомбіленді / Zombieland (2009) 720p Ukr/Eng | Sub Eng

«Welcome to Zombieland.»


Жанр: кумедія, жахи, бойовик
Країна: США



Кіностудія / кінокомпанія: Columbia Pictures, Relativity Media, Pariah
Режисер: Рубен Флейшер (Ruben Fleischer)
Композитор: Дейвід Сарді (David Sardy)
Актори: Джесі Айзенберґ (Jesse Eisenberg), Вуді Гаррельсон (Woody Harrelson), Емма Стоун (Emma Stone), Abigail Breslin, Ембер Герд (Amber Heard), Біл Мюрей (Bill Murray), John C. Reilly та інші.

Сюжет:
Коли всенький світ захоплюють зомбі, вижити можна лише коли ти або супергерой, котрий народився з автоматом у руках, або боягуз, який жахається власної тіні і кожного шурхоту. Та сама кумедія починається, коли зустрічаються представники цих геть протилежних видів - саме такими представниками є Талагассі, який живе лише заради винищення ходячих трупів, та супер-боягуз Коламбус. Враховуючи додаткову турботу у вигляді двох дівчат хлопцям доведеться зробити важкий вибір - або навчитися довіряти одне одному, або підставити горлянку під гнилі зуби.
MediaInfo

Код:
General
Unique ID                        : 232054663615552716451408687197139917848 (0xAE941A400223AE05BA934DBDF6725C18)
Complete name                    : D:\HURTOM\Zombieland (2009) [Ukr, Eng] 720p [Hurtom].mkv
Format                           : Matroska
Format version                   : Version 2
File size                        : 4.25 GiB
Duration                         : 1h 27mn
Overall bit rate                 : 6 942 Kbps
Movie name                       : Zombieland (2009) [Ukr, Eng] 720p [Hurtom]
Encoded date                     : UTC 2012-05-01 19:57:40
Writing application              : mkvmerge v5.0.1 ('Es ist Sommer') built on Oct  9 2011 11:55:43
Writing library                  : libebml v1.2.2 + libmatroska v1.3.0

Video
ID                               : 1
Format                           : AVC
Format/Info                      : Advanced Video Codec
Format profile                   : [email protected]
Format settings, CABAC           : Yes
Format settings, ReFrames        : 8 frames
Codec ID                         : V_MPEG4/ISO/AVC
Duration                         : 1h 27mn
Bit rate                         : 5 439 Kbps
Width                            : 1 280 pixels
Height                           : 534 pixels
Display aspect ratio             : 2.40:1
Frame rate                       : 23.976 fps
Color space                      : YUV
Chroma subsampling               : 4:2:0
Bit depth                        : 8 bits
Scan type                        : Progressive
Bits/(Pixel*Frame)               : 0.332
Stream size                      : 3.27 GiB (77%)
Title                            : Zombieland (2009) [Ukr, Eng] 720p [Hurtom]
Writing library                  : core 80 r1376M 3feaec2
Encoding settings                : cabac=1 / ref=8 / deblock=1:-3:-3 / analyse=0x3:0x113 / me=umh / subme=9 / psy=1 / psy_rd=1.0:0.1 / mixed_ref=1 / me_range=24 / chroma_me=1 / trellis=2 / 8x8dct=1 / cqm=0 / deadzone=21,11 / fast_pskip=0 / chroma_qp_offset=-3 / threads=6 / sliced_threads=0 / nr=0 / decimate=1 / mbaff=0 / constrained_intra=0 / bframes=6 / b_pyramid=2 / b_adapt=2 / b_bias=0 / direct=3 / wpredb=1 / wpredp=2 / keyint=250 / keyint_min=25 / scenecut=40 / rc=2pass / mbtree=0 / bitrate=5439 / ratetol=1.0 / qcomp=0.60 / qpmin=10 / qpmax=51 / qpstep=4 / cplxblur=20.0 / qblur=0.5 / ip_ratio=1.40 / pb_ratio=1.30 / aq=1:0.60
Language                         : English
Default                          : Yes
Forced                           : No

Audio #1
ID                               : 2
Format                           : AC-3
Format/Info                      : Audio Coding 3
Mode extension                   : CM (complete main)
Codec ID                         : A_AC3
Duration                         : 1h 27mn
Bit rate mode                    : Constant
Bit rate                         : 640 Kbps
Channel(s)                       : 6 channels
Channel positions                : Front: L C R, Side: L R, LFE
Sampling rate                    : 48.0 KHz
Bit depth                        : 16 bits
Compression mode                 : Lossy
Stream size                      : 401 MiB (9%)
Title                            : 5.1 @ 640 kbps - професійний дубльований | Невафільм Україна | Ліцензія Blu Ray
Language                         : Ukrainian
Default                          : Yes
Forced                           : No

Audio #2
ID                               : 3
Format                           : AC-3
Format/Info                      : Audio Coding 3
Mode extension                   : CM (complete main)
Codec ID                         : A_AC3
Duration                         : 1h 27mn
Bit rate mode                    : Constant
Bit rate                         : 640 Kbps
Channel(s)                       : 6 channels
Channel positions                : Front: L C R, Side: L R, LFE
Sampling rate                    : 48.0 KHz
Bit depth                        : 16 bits
Compression mode                 : Lossy
Stream size                      : 401 MiB (9%)
Title                            : 5.1 @ 640 kbps
Language                         : English
Default                          : No
Forced                           : No

Audio #3
ID                               : 4
Format                           : AC-3
Format/Info                      : Audio Coding 3
Format profile                   : Dolby Digital
Mode extension                   : CM (complete main)
Codec ID                         : A_AC3
Duration                         : 1h 27mn
Bit rate mode                    : Constant
Bit rate                         : 192 Kbps
Channel(s)                       : 2 channels
Channel positions                : Front: L R
Sampling rate                    : 48.0 KHz
Bit depth                        : 16 bits
Compression mode                 : Lossy
Stream size                      : 120 MiB (3%)
Title                            : 2.0 @ 192 kbps - Commentary
Language                         : English
Default                          : No
Forced                           : No

Text #1
ID                               : 5
Format                           : UTF-8
Codec ID                         : S_TEXT/UTF8
Codec ID/Info                    : UTF-8 Plain Text
Title                            : Форсовані
Language                         : Ukrainian
Default                          : Yes
Forced                           : No

Text #2
ID                               : 6
Format                           : UTF-8
Codec ID                         : S_TEXT/UTF8
Codec ID/Info                    : UTF-8 Plain Text
Title                            : Full
Language                         : English
Default                          : No
Forced                           : No

Text #3
ID                               : 7
Format                           : PGS
Muxing mode                      : zlib
Codec ID                         : S_HDMV/PGS
Codec ID/Info                    : The same subtitle format used on BDs/HD-DVDs
Title                            : Commentary
Language                         : English
Default                          : No
Forced                           : No

Menu
00:00:00.000                     : en:00:00:00.000
00:00:34.618                     : en:00:00:34.618
00:02:19.473                     : en:00:02:19.473
00:07:15.352                     : en:00:07:15.352
00:16:22.732                     : en:00:16:22.732
00:21:14.064                     : en:00:21:14.064
00:22:20.965                     : en:00:22:20.965
00:23:08.637                     : en:00:23:08.637
00:23:34.705                     : en:00:23:34.705
00:24:05.944                     : en:00:24:05.944
00:30:50.724                     : en:00:30:50.724
00:34:17.597                     : en:00:34:17.597
00:46:35.167                     : en:00:46:35.167
00:52:55.464                     : en:00:52:55.464
01:05:54.242                     : en:01:05:54.242
01:07:01.726                     : en:01:07:01.726
01:11:10.641                     : en:01:11:10.641
01:12:22.129                     : en:01:12:22.129
01:14:24.168                     : en:01:14:24.168
01:14:53.572                     : en:01:14:53.572
01:17:20.302                     : en:01:17:20.302
01:19:13.791                     : en:01:19:13.791
01:19:46.532                     : en:01:19:46.532
Релізи та інформація про озвучення/дублювання

1080p Ukr/Eng (9.14 GB) - професійний дубльований Невафільм Україна Ліцензія Blu Ray
Ukr/Eng (1.46 GB) - професійний дубльований Невафільм Україна

Фільм дубльовано Невафільм Україна, Київ 2009 рік
Режисер дубляжу: Іван Марченко
Звукорежисер: Фелікс Трескунов
Переклад: Федіра Сидорука
Координатор проекту: Лариса Шаталова
Ролі дублювали: Емма Стоун/Вічіта - Юлія Перенчук, Джесі Айзенберґ - Павло Скороходько, Вуді Гаррельсон - Олег Стальчук, Анастасія Зіновенко, Євген Пашин, Андрій Твердак
Тривалість: 01:27:42
Якість: 720p (EbP)
Відео:
кодек:
розмір кадру: 1280x534
бітрейт: 5439 кб/с

Аудіо # 1:
мова: українська
переклад: професійний дубльований Невафільм Україна | Ліцензія Blu Ray
кодек: 5.1
бітрейт: 640 кб/с

Аудіо # 2:
мова: анґлійська
переклад: ориґінал
кодек: 5.1
бітрейт: 640 кб/с

Аудіо # 3:
мова: анґлійська (коментарі)
кодек: 2.0
бітрейт: 192 кб/с

Субтитри # 1:
мова: українська (форсовані)
тип: програмні (м'які)
формат: *.srt
джерело субтитрів: Blu Ray

Субтитри # 2-3:
мова: анґлійська (повні та до коментарів)
тип: програмні (м'які)
формат: *.srt, pgs

Скріншоти:





За люб'язно надану доріжку подяка leroykendall


Джерело:
Особиста оцінка: не дивився


 Трекер:    Зареєстрований   

Завантажити / скачати фільм українською



відео для новачків



 Зареєстрований:   2012-05-02 11:54
 Розмір:   4.25 GB 
 Оцінка фільму:   7/10 (Голосів: 24)
   
bot 
робот


З нами з: 30.09.07
Востаннє: 26.05.05
Повідомлень: 15984

2012-05-02 11:54  
Тему перенесено з Анонси релізів від Відео Гуртом до форуму Фільми в HD


w2958l

kionlife 
Тризуб
Переклад програм


З нами з: 11.07.12
Востаннє: 04.12.16
Повідомлень: 217

2013-12-31 12:22  
Є хто? Не можу завантажити...
Double Trouble 
Свій


З нами з: 19.07.14
Востаннє: 04.12.16
Повідомлень: 90

2016-01-04 15:08  
"кумедія" дійсно?
Ваш часовий пояс: GMT + 2 Години

Нова тема   Відповісти