Завантажити та скачати торренти українською


VA - Рідна мати моя [Золота колекція] (2005) [APE] | Pop / Folk

Нові коментарі

Нова тема   Відповісти
Автор Повідомлення
ssTAss 
Модератор музики


З нами з: 05.07.08
Востаннє: 04.12.16
Повідомлень: 10935

2012-05-01 22:50  
VA - Рідна мати моя [Золота колекція] (2005) [APE] | Pop / Folk

VA - Рідна мати моя [Золота колекція] (2005) [APE] | Pop / Folk


Стиль: Pop, Folk
Країна: Україна
Видавець: Астра Рекордс
Виконавці:
VA
Пісні:
    1. Пісня про рушник (Дмитро Гнатюк)
    2. Пісня про матір (Ніна Матвієнко)
    3. Чорнобривці (Костянтин Огнєвий)
    4. Чому співають матері (тріо бандуристок)
    5. Два кольори (Анатолій Мокренко)
    6. Мамина коса (Дмитро Кондратюк)
    7. Пісня про матір (Валерій Ясиновський)
    8. Росте черешня в мами на городі (Анатолій Горчинський)
    9. Мама (естрадно симфонічний оркестр Українського радіо)
    10. Колискова для мами (дитячий хор Українського радіо)
    11. Колискова (естрадно симфонічний оркестр Українського радіо)
    12. Мамине вікно (Лідія Михайленко)
    13. Доки мати жива (Ярослав Гнатюк)
    14. Мама (Дмитро Гнатюк)
log
Exact Audio Copy V0.99 prebeta 4 from 23. January 2008

Отчёт EAC об извлечении, выполненном 3. марта 2008, 19:36

Various / Рідна Мати Моя

Дисковод: Optiarc DVD RW AD-7170A Adapter: 1 ID: 0

Режим чтения : Достоверность
Использование точного потока : Да
Отключение кэша аудио : Да
Использование указателей C2 : Нет

Коррекция смещения при чтении : 48
Способность читать области Lead-in и Lead-out : Нет
Заполнение пропущенных сэмплов тишиной : Да
Удаление блоков с тишиной в начале и конце : Нет
При вычислениях CRC использовались нулевые сэмплы : Да
Интерфейс : Установленный внешний ASPI-интерфейс

Выходной формат : Monkey's Audio Lossless Encoder v3.99 DLL
Формат сэмплов : High Lossless Compression

TOC извлечённого CD

Трек | Старт | Длительность | Начальный сектор | Конечный сектор
---------------------------------------------------------------------
1 | 0:00.00 | 4:50.42 | 0 | 21791
2 | 4:50.42 | 3:14.47 | 21792 | 36388
3 | 8:05.14 | 3:41.69 | 36389 | 53032
4 | 11:47.08 | 3:51.08 | 53033 | 70365
5 | 15:38.16 | 6:07.08 | 70366 | 97898
6 | 21:45.24 | 4:54.00 | 97899 | 119948
7 | 26:39.24 | 5:12.31 | 119949 | 143379
8 | 31:51.55 | 4:01.34 | 143380 | 161488
9 | 35:53.14 | 3:31.60 | 161489 | 177373
10 | 39:24.74 | 3:03.26 | 177374 | 191124
11 | 42:28.25 | 3:00.35 | 191125 | 204659
12 | 45:28.60 | 2:41.27 | 204660 | 216761
13 | 48:10.12 | 3:37.05 | 216762 | 233041
14 | 51:47.17 | 3:51.04 | 233042 | 250370

Характеристики диапазона извлечения и сообщения об ошибках

Выбранный диапазон

Имя файла D:\ОБРАЗЫ ДИСКОВ\Образы CD\Various - Рідна Мати Моя\Various - Рідна Мати Моя.ape

Пиковый уровень 100.0 %
Качество диапазона 100.0 %
CRC копии D1151B06
Копирование... OK

Ошибок не произошло

Конец отчёта
fooCDtect
fooCDtect - foobar2000 + auCDtect, baralgin.

auCDtect: CD records authenticity detector, version 0.8.2
Copyright (c) 2004 Oleg Berngardt. All rights reserved.
Copyright (c) 2004 Alexander Djourik. All rights reserved.

mode: 0

===========================================
Track: 01 - Д.Гнатюк - Пісня Про Рушник (1981)
Quality: CDDA 100%
===========================================
Track: 02 - Н.Матвіенко - Пісня Про Матір (1985)
Quality: CDDA 100%
===========================================
Track: 03 - К.Огневий - Чорнобривці (1992)
Quality: CDDA 100%
===========================================
Track: 04 - Тріо Бандуристок - Чому Сивіють Матері (1992)
Quality: CDDA 99%
===========================================
Track: 05 - А.Мокренко - Два Кольори (1971)
Quality: CDDA 100%
===========================================
Track: 06 - Л.Кондратюк - Мамина Коса (1989)
Quality: CDDA 99%
===========================================
Track: 07 - В.Ясиновський - Пісня Про Матір (2003)
Quality: CDDA 100%
===========================================
Track: 08 - А.Горчинський - Росте Черешня В Мами На Городі (1992)
Quality: CDDA 100%
===========================================
Track: 09 - Оркестр Українського Радіо - Мама (1987)
Quality: CDDA 100%
===========================================
Track: 10 - Великий Дитячий Хор Українського Радіо - Колискова Для Мами (1991)
Quality: CDDA 100%
===========================================
Track: 11 - Оркестр Українського Радіо - Колискова (1986)
Quality: CDDA 100%
===========================================
Track: 12 - Л.Михайленко - Мамине Вікно (1991)
Quality: CDDA 100%
===========================================
Track: 13 - Я.Гнатюк - Доки Мати Жива (1990)
Quality: CDDA 100%
===========================================
Track: 14 - Д.Гнатюк - Мама (1977)
Quality: CDDA 100%
===========================================
Тривалість: 00:55:38
Мова: українська
Аудіо-кодек: APE
Бітрейт: 652 кб/с
Джерело: інший трекер
Додаткова інформація:
Гадаю, одразу зрозуміло, кому присвячено цю збірку. І навряд хтось стане заперечувати, що наші мами на це заслуговують. І я міг би завести зараз розмову про те, яке значення в житті кожної людини має її матір, або яку роль відіграє цей образ в культурі всього людства в цілому – але кожен з нас і так все розуміє. Сподіваюся. У всякому разі, це точно розуміли люди, що писали представлені тут пісні, і люди, які ці пісні заспівали. Чи добре заспівали? Так. До того ж, вони – майстри своєї справи. Костянтин Огнєвий, Ніна Матвієнко, Дмитро Гнатюк – всіх перелічувати не буду. Всіх їх ми добре знаємо, і пісні ці у їхньому виконанні любимо здавна. Гадаю, що і мами наші – теж. Тому й не буду казати довго й нудно, як умію. А якщо коротко, то цей диск – просто гарний дарунок коханій. Матері, дружині, дівчині, дочці, собі – то вже самі визначайтеся.


Якщо Ви справді бажаєте підтримати українське - після прослуховування, якщо музика вам сподобалась,
придбайте ліцензійний диск.
Підтримаймо вітчизняних виконавців!


Срібний реліз (на рейтинг впливає 50% завантаженого)
 Трекер:    Зареєстрований   

Завантажити / скачати українську музику



відео для новачків



 Зареєстрований:   2012-05-01 22:50
 Розмір:   260 MB 
 Оцінка музики:   7/10 (Голосів: 10)
   
neseniuk 
Поважний учасник


З нами з: 19.11.08
Востаннє: 03.12.16
Повідомлень: 160

2012-05-02 07:19  
а можна в MP3? дякую!
ssTAss 
Модератор музики


З нами з: 05.07.08
Востаннє: 04.12.16
Повідомлень: 10935

2012-05-02 13:16  
neseniuk написано:
а можна в MP3? дякую!

якщо хтось зробить

не додивився, а виявляється цей альбом є на Толоці в потрековому флаку (і сам обкладинки туди додав, але чомусь подумав, що це мр3 Rolleyes (2) ) http://toloka.to/t8034, тому свій поки в архів переношу (хоч тут правильний ріп)

ssTAss 
Модератор музики


З нами з: 05.07.08
Востаннє: 04.12.16
Повідомлень: 10935

2013-03-31 00:37  
так як Толока взяла курс на якість Rolleyes (2) , то свій реліз переношу в розділ, а існуючий - в архів
Ваш часовий пояс: GMT + 2 Години

Нова тема   Відповісти