Завантажити та скачати торренти українською


VA - Ти ж мене підманула. Українські народні жартівливі пісні (2006) [WV] | Folk

Нові коментарі

Нова тема   Відповісти
Останній раз роздавалося boberчег (2016-12-05)
Автор Повідомлення
ssTAss 
Модератор музики


З нами з: 05.07.08
Востаннє: 09.12.16
Повідомлень: 10948

2012-05-01 18:07  
VA - Ти ж мене підманула. Українські народні жартівливі пісні (2006) [WV] | Folk

VA - Ти ж мене підманула. Українські народні жартівливі пісні (2006) [WV] | Folk


Стиль: Folk
Країна: Україна
Видавець: Астра Рекордс
Виконавці:
VA
Пісні:
    1. Вийди, Грицю, на вулицю (Черкаський укр. нар. хор)
    2. Кину кужіль на полицю (Є. Крикун)
    3. Ти казала прийди, прийди (Національна заслужена капела бандуристів України ім. Г. І. Майбороди)
    4. Я щаслива зроду (Є. Крикун)
    5. Підкручу я чорнії вуса (В. Верменич)
    6. Черевички (Т. Бучна)
    7. Чому дівки не йдуть заміж (вок. тріо Укр. нар. хору ім. Г. Верьовки)
    8. Господарочка (В. Синельник)
    9. Ой, служив же я у пана (фольк. анс. "Червона калина")
    10. Вітер, вітер (Раїса Кириченко)
    11. В мого Гриця чорні брови (О. Павловська, Т. Горбатенко)
    12. Жито, мати, жито (В. Синельник)
    13. Гей, Іване (В. Харченко)
    14. Ярема (М. Поляков)
    15. Коли-м була мала (Алла Кудлай)
    16. Оженився я в Петрівку (фольк. анс. с. Чагів)
    17. Чи я не хазяйка (анс. пісні і танцю "Козаки Поділля")
    18. Та орав мужик край дороги (Державна капела бандуристів України)
    19. Служив Яшко у пана (Черкаський держ. укр. нар. хор)
    20. Кажуть люди, що я лиха (Раїса Кириченко)
    21. Коли б мені зранку (фольк. анс. "Веселі музики")
    22. Солом’яні бички мав (А. Бобир)
    23. Продай, милий, сиві бички (Раїса Кириченко)
    24. Удовицю я любив (М. Частій)
    25. А хто бачив, а хто чув (тріо "Либідь")
    26. Чоловіче, чоловіче (Раїса Кириченко)
    27. З того часу, як женився (В. Грицюк)
    28. Правда, люди, правда (тріо фольк. анс. "Калина")
    29. Як посіяв мужик та й у полі ячмінь (В. Єсипок)
    30. Гречаники (троїсті музики с. Дружба)
    31. Я ж тебе, Галю, не лаю (нар. хор радгоспу "Мартовський")
    32. Добрий вечір, сусідонько (В. Синельник, В. Харченко)
    33. Садом, садом, кумасенько (В. Мокренко, М. Шраменко)
    34. Наша баба на базарі була (вок. тріо Укр. нар. хору ім. Г. Верьовки)
    35. Коли б я був полтавським соцьким (Ансамбль "Козацькі Забави")
    36. На досвітку (фольк. театр-студія "Берегиня")
log

Exact Audio Copy V1.0 beta 3 from 29. August 2011

EAC extraction logfile from 21. December 2011, 21:58

Українські народні жартівливі пісні / Ти ж мене підманула

Used drive : HL-DT-STDVDRAM GH20NS10 Adapter: 3 ID: 0

Read mode : Secure
Utilize accurate stream : Yes
Defeat audio cache : Yes
Make use of C2 pointers : No

Read offset correction : 667
Overread into Lead-In and Lead-Out : No
Fill up missing offset samples with silence : Yes
Delete leading and trailing silent blocks : No
Null samples used in CRC calculations : Yes
Used interface : Native Win32 interface for Win NT & 2000

Used output format : User Defined Encoder
Selected bitrate : 896 kBit/s
Quality : High
Add ID3 tag : No
Command line compressor : C:\Program Files (x86)\Exact Audio Copy\wavpack.exe
Additional command line options : -hm %source% %dest%

TOC of the extracted CD

Track | Start | Length | Start sector | End sector
---------------------------------------------------------
1 | 0:00.00 | 1:26.06 | 0 | 6455
2 | 1:26.06 | 3:16.04 | 6456 | 21159
3 | 4:42.10 | 1:23.04 | 21160 | 27388
4 | 6:05.14 | 2:01.03 | 27389 | 36466
5 | 8:06.17 | 2:52.03 | 36467 | 49369
6 | 10:58.20 | 1:29.23 | 49370 | 56067
7 | 12:27.43 | 1:59.06 | 56068 | 64998
8 | 14:26.49 | 3:16.00 | 64999 | 79698
9 | 17:42.49 | 2:51.00 | 79699 | 92523
10 | 20:33.49 | 1:14.00 | 92524 | 98073
11 | 21:47.49 | 1:48.03 | 98074 | 106176
12 | 23:35.52 | 1:42.00 | 106177 | 113826
13 | 25:17.52 | 2:01.00 | 113827 | 122901
14 | 27:18.52 | 2:37.35 | 122902 | 134711
15 | 29:56.12 | 2:06.13 | 134712 | 144174
16 | 32:02.25 | 1:58.08 | 144175 | 153032
17 | 34:00.33 | 1:47.20 | 153033 | 161077
18 | 35:47.53 | 1:45.05 | 161078 | 168957
19 | 37:32.58 | 1:51.24 | 168958 | 177306
20 | 39:24.07 | 2:02.25 | 177307 | 186481
21 | 41:26.32 | 2:50.04 | 186482 | 199235
22 | 44:16.36 | 2:03.05 | 199236 | 208465
23 | 46:19.41 | 2:21.19 | 208466 | 219059
24 | 48:40.60 | 2:23.25 | 219060 | 229809
25 | 51:04.10 | 1:04.17 | 229810 | 234626
26 | 52:08.27 | 2:22.20 | 234627 | 245296
27 | 54:30.47 | 1:39.04 | 245297 | 252725
28 | 56:09.51 | 1:43.03 | 252726 | 260453
29 | 57:52.54 | 4:12.15 | 260454 | 279368
30 | 62:04.69 | 2:53.07 | 279369 | 292350
31 | 64:58.01 | 2:30.29 | 292351 | 303629
32 | 67:28.30 | 1:29.05 | 303630 | 310309
33 | 68:57.35 | 1:36.01 | 310310 | 317510
34 | 70:33.36 | 3:01.01 | 317511 | 331086
35 | 73:34.37 | 2:13.03 | 331087 | 341064
36 | 75:47.40 | 2:29.03 | 341065 | 352242

Range status and errors

Selected range

Filename C:\Users\Андрей\Music\Various - Ти ж мене підманула\Українські народні жартівливі пісні - Ти ж мене підманула.wav

Peak level 97.0 %
Extraction speed 7.9 X
Range quality 100.0 %
Test CRC 50F7405B
Copy CRC 50F7405B
Copy OK

No errors occurred

AccurateRip summary

Track 1 not present in database
Track 2 not present in database
Track 3 not present in database
Track 4 not present in database
Track 5 not present in database
Track 6 not present in database
Track 7 not present in database
Track 8 not present in database
Track 9 not present in database
Track 10 not present in database
Track 11 not present in database
Track 12 not present in database
Track 13 not present in database
Track 14 not present in database
Track 15 not present in database
Track 16 not present in database
Track 17 not present in database
Track 18 not present in database
Track 19 not present in database
Track 20 not present in database
Track 21 not present in database
Track 22 not present in database
Track 23 not present in database
Track 24 not present in database
Track 25 not present in database
Track 26 not present in database
Track 27 not present in database
Track 28 not present in database
Track 29 not present in database
Track 30 not present in database
Track 31 not present in database
Track 32 not present in database
Track 33 not present in database
Track 34 not present in database
Track 35 not present in database
Track 36 not present in database

None of the tracks are present in the AccurateRip database

End of status report

==== Log checksum 8157B90AA149A1D7DFE6EBFC93134E53C2304721F21F4A05DFB7A7D9865C3D4E ====
tau
VA - Ти ж мене підманула. Українські народні жартівливі пісні (2006) [WV] | Folk
Тривалість: 01:18:17
Мова: українська
Аудіо-кодек: WavPack (iso.wv)
що це таке?

можна просто слухати в фубарі, наприклад (.cue вбудований), а можна відкрити як образ диску (змінити розширення .iso.wv на .iso і відкрити на віртуальному приводі або записати на диск)
для точнішої інформації витягнув і переклав файл [UA] README No unpacking needed to play or burn this release.txt з образу
прочитайте його перед прослуховуванням
Бітрейт: 745 кб/с
Джерело: нетлаб
Додаткова інформація:
Інколи здається, що всі українські народні пісні – протяжні, сумні, голосисті, такі, що душу вивертають. Інколи здається – в кожній з них можна розгледіти такий серйозний та прадавній корінь, що аж дух перехоплює – така там глибина проступає. А інколи – ну куди не глянеш, самі-одні жарти, усмішки, танці, легкі флірти і тому подібні радості. От тоді розумієш, що на справжню глибину здатен не той, хто цю саму глибину власну тільки і виспівує. Ні. На справжню – здатен тільки той народ, який здатен по-справжньому пожартувати, навіть і поглузувати з самого себе. Бо тільки в такому випадку він здатен тверезо себе оцінювати. І тоді якщо вже проступить глибина – то от вона і буде справжньою. До того веду, що порадував мене цей диск. Чимало знайшлося у фондах Національної радіокомпанії України веселих, жартівливих пісень – і це ж далеко не все, що там можна знайти. Вміли і вміють українці з себе посміятися, не бояться вони сміху. А значить – міцне коріння мають, глибоке. Є чим пишатись – і куди копати теж є. Це важливо.


Якщо Ви справді бажаєте підтримати українське - після прослуховування, якщо музика вам сподобалась,
придбайте ліцензійний диск.
Підтримаймо вітчизняних виконавців!


Срібний реліз (на рейтинг впливає 50% завантаженого)
 Трекер:    Зареєстрований   

Завантажити / скачати українську музику



відео для новачків



 Зареєстрований:   2012-05-01 18:07
 Розмір:   417 MB 
 Оцінка музики:   8/10 (Голосів: 14)
   
Gienek_Lwow 
VIP


З нами з: 28.09.10
Востаннє: 09.12.16
Повідомлень: 541

2012-05-02 19:52  
Чудові пісні, в бездоганному виконанні, слухати всім обов'язково!!!
civ 
VIP


З нами з: 16.02.11
Востаннє: 08.12.16
Повідомлень: 429

2012-07-09 19:52  
Класні пісні! Який гарний реліз.
Ваш часовий пояс: GMT + 2 Години

Нова тема   Відповісти