Завантажити та скачати торренти українською


Місія неможлива: Протокол Фантом / Mission: Impossible - Ghost Protocol (2011) 720p-mini

Нові коментарі

Нова тема   Відповісти
Автор Повідомлення
oleh_oleh 
Свій


З нами з: 05.05.11
Востаннє: 06.12.16
Повідомлень: 67

2012-04-29 21:39  
Місія неможлива: Протокол Фантом / Mission: Impossible - Ghost Protocol (2011) 720p-mini

Місія неможлива: Протокол Фантом / Mission: Impossible - Ghost Protocol (2011) 720p-mini


Жанр: екшн, пригодницький, трилер
Країна: США



Кіностудія / кінокомпанія: Paramount Pictures, Skydance Productions, Bad Robot, FilmWorks, Stillking Films, TC Productions
Режисер: Бред Бьорд
Актори: Том Круз, Пола Петтон, Саймон Пег, Джеремі Реннер, Володимир Машков

Сюжет:
Коли агент спецпідрозділу «Місія нездійсненна» Ітан Гант зі своїми напарниками виявляються втягнуті в чергову змову вселенського масштабу, президент дає добро на виконання протоколу «Фантом», суть якого в ліквідації наших героїв. А вся ця каша почалася з чималого підриву Кремля. Тепер Ітану належить виконати чергову нездійсненну місію, врятувати людство і повернути собі добре ім'я.


Тривалість: 2:12:56
Якість:

Відео:
кодек:
розмір кадру: 1280 X 536
бітрейт: 2550 кб/с

Аудіо:
мова: українська
переклад: професійний дубльований (ліцензія)
кодек: 5.1
бітрейт: 448 кб/с

Джерело озвучення:
Подяка StarGameR за українську звукову доріжку
MediaInfo
Format : Matroska
File size : 2.78 GiB
Duration : 2h 12mn
Overall bit rate : 2 999 Kbps
Encoded date : UTC 2012-04-29 20:03:34
Writing application : mkvmerge v4.2.0 ('No Talking') збірка від Jul 28 2010 18:38:23
Writing library : libebml v1.0.0 + libmatroska v1.0.0

Video
ID : 1
Format : AVC
Format/Info : Advanced Video Codec
Format profile : [email protected]
Format settings, CABAC : Yes
Format settings, ReFrames : 3 frames
Format settings, GOP : M=3, N=23
Codec ID : V_MPEG4/ISO/AVC
Duration : 2h 12mn
Bit rate : 2 550 Kbps
Width : 1 280 pixels
Height : 536 pixels
Display aspect ratio : 2.35:1
Frame rate mode : Variable
Frame rate : 23.976 fps
Color space : YUV
Chroma subsampling : 4:2:0
Bit depth : 8 bits
Scan type : Progressive
Bits/(Pixel*Frame) : 0.155
Stream size : 2.31 GiB (83%)
Writing library : core 116 r2019M 9cc407d
Encoding settings : cabac=1 / ref=3 / deblock=1:0:0 / analyse=0x3:0x133 / me=hex / subme=7 / psy=1 / psy_rd=1.00:0.20 / mixed_ref=1 / me_range=16 / chroma_me=1 / trellis=1 / 8x8dct=1 / cqm=0 / deadzone=21,11 / fast_pskip=1 / chroma_qp_offset=-3 / threads=12 / sliced_threads=0 / nr=0 / decimate=1 / interlaced=0 / bluray_compat=0 / constrained_intra=0 / bframes=3 / b_pyramid=1 / b_adapt=2 / b_bias=0 / direct=3 / weightb=1 / open_gop=0 / weightp=2 / keyint=230 / keyint_min=23 / scenecut=40 / intra_refresh=0 / rc_lookahead=40 / rc=2pass / mbtree=1 / bitrate=2550 / ratetol=1.0 / qcomp=0.60 / qpmin=10 / qpmax=51 / qpstep=4 / cplxblur=20.0 / qblur=0.5 / ip_ratio=1.40 / aq=1:1.00
Language : English

Audio
ID : 2
Format : AC-3
Format/Info : Audio Coding 3
Mode extension : CM (complete main)
Codec ID : A_AC3
Duration : 2h 12mn
Bit rate mode : Constant
Bit rate : 448 Kbps
Channel(s) : 6 channels
Channel positions : Front: L C R, Side: L R, LFE
Sampling rate : 48.0 KHz
Bit depth : 16 bits
Compression mode : Lossy
Stream size : 426 MiB (15%)
Language : Ukrainian

Скріншоти




Джерело:

Особиста оцінка: 8 - мені сподобалося


 Трекер:    Зареєстрований   

Завантажити / скачати фільм українською



відео для новачків



 Зареєстрований:   2012-04-29 22:08
 Розмір:   2.78 GB 
 Оцінка фільму:   9.6/10 (Голосів: 26)
   
braveboy 
Відео Гуртом - команда HD
Відео Гуртом - команда HD


З нами з: 15.06.10
Востаннє: 29.10.16
Повідомлень: 958

2012-04-29 22:19  
oleh_oleh
додай MediaInfo

bot 
робот


З нами з: 30.09.07
Востаннє: 26.05.05
Повідомлень: 16031

2012-04-29 22:44  
Тему перенесено з Фільми до форуму Фільми в HD


oleh_oleh

DiGen 
Модератор HD та координатор Команди HD
Модератор HD та координатор Команди HD


З нами з: 12.11.09
Востаннє: 24.06.13
Повідомлень: 1452

2012-05-07 18:03  
Світлини мають бути в png.

Додано через 2 хвилини 45 секунд:

Підпис файлу відкоректувати згідно правил.

Sensetivity 
VIP


З нами з: 03.05.11
Востаннє: 03.01.13
Повідомлень: 2019

2012-05-07 18:06  
DiGen написано:
Підпис файлу відкоректувати згідно правил.

Тикніть мене носом, де в правих прописаний пункт для назви файлу який не є учасником "Відео Гуртом"

DiGen 
Модератор HD та координатор Команди HD
Модератор HD та координатор Команди HD


З нами з: 12.11.09
Востаннє: 24.06.13
Повідомлень: 1452

2012-05-08 00:53  
Sensetivity
oleh_oleh написано:
Файл: Місія неможлива Протокол Фантом.mkv

Хіба це правильно?
Хоча б латиницею (або оригінальна), рік та формат можна було б вказати.

Додано через 1 годину 23 хвилини 4 секунди:

Добре, ставлю перевірено. На цей раз.

Strider477 
Новенький


З нами з: 29.10.11
Востаннє: 05.12.16
Повідомлень: 20

2013-05-06 19:05  
Кіно супер! Дякую
kill_1 
Свій


З нами з: 11.07.10
Востаннє: 06.12.16
Повідомлень: 74

2013-11-13 16:34  
Прошу когось хто скачав верніться на роздачу будь ласка
Ваш часовий пояс: GMT + 2 Години

Нова тема   Відповісти