Завантажити та скачати торренти українською


Три ікси. Дилогія / xXx. Dilogy (2002-2005) 720p 2xUkr/Eng | Sub Eng

Нові коментарі

Нова тема   Відповісти
Автор Повідомлення
Zeus62 
Відео Гуртом - команда HD
Відео Гуртом - команда HD


З нами з: 29.12.08
Востаннє: 16.11.16
Повідомлень: 330

2012-04-26 01:33  
Три ікси. Дилогія / xXx.Dilogy (2002-2005) 720p 2xUkr/Eng | Sub Eng

Три ікси. Дилогія / xXx. Dilogy (2002-2005) 720p 2xUkr/Eng | Sub Eng


Жанр: бойовик, екшн
Країна: США
Три Ікси / xXx (2002) 720p 2xUkr/Eng | Sub Eng:

Три Ікси / xXx (2002) 720p 2xUkr/Eng | Sub Eng

Три ікси. Дилогія / xXx. Dilogy (2002-2005) 720p 2xUkr/Eng | Sub Eng


Жанр: бойовик, екшн
Країна: США



Кіностудія / кінокомпанія: Columbia Pictures Corporation, Revolution Studios, Original Film
Режисер: Роб Коген
Актори: Він Дізель, Семюель Л. Джексон, Азія Ардженто, Денні Трейо, Мартон Чокаш, Джо Букаро-тр., ТіДжей Бойс, Ів, Пол Ландрес, Майкл Руф

Сюжет:
Ви чули новину? Джеймс Бонд іде на пенсію! На вулиці XXI століття і нові часи потебують нових суперагентів. Таких, як Ксандер Кейдж, що виріс на "злих вулицях" мегаполіса, крутий і холоднокровний спортсмен-екстремал. Завербований Агентством Національної Безпеки США, герой повинен увійти в терористичне угрупування "Анархія-99", яке має маніакальні плани піддати хаосу весь світ. В нього безуспішно намагались проникнути кращі шпіони, і Ксандер - остання надія АНБ. Балансуючи по лезу ножа, не за ідеали "вільного світу", а за одне лише п'янке почуття ризику і адреналіновий тайфун в крові, на землі, в повітрі і на воді агент Кейдж вступає в смертельне єдиноборство з безжалістними терористами.


Тривалість: 02:04:08
Якість:
Відео:
кодек:
розмір кадру: 1280 х 532
бітрейт: 3840 кб/с

Аудіо # 1:
мова: українська
переклад: двоголосий закадровий
кодек: 5.1
бітрейт: 384 кб/с

Аудіо # 2:
мова: українська
переклад: багатоголосий закадровий |Так Треба|
кодек: 5.1
бітрейт: 384 кб/с

Аудіо # 3:
мова: англійська
переклад: оригінал
кодек: 5.1
бітрейт: 384 кб/с

Субтитри:
мова: англійська
тип: програмні (м'які)
формат: *.srt
MediaInfo:
File size : 4.33 GiB
Duration : 2h 4mn
Overall bit rate : 4 991 Kbps
Encoded date : UTC 2012-04-24 23:35:46
Writing application : mkvmerge v5.5.0 ('Healer') built on Apr 7 2012 12:04:29
Writing library : libebml v1.2.2 + libmatroska v1.3.0

Video
ID : 1
Format : AVC
Format/Info : Advanced Video Codec
Format profile : [email protected]
Format settings, CABAC : Yes
Format settings, ReFrames : 16 frames
Codec ID : V_MPEG4/ISO/AVC
Duration : 2h 4mn
Bit rate : 3 840 Kbps
Width : 1 280 pixels
Height : 532 pixels
Display aspect ratio : 2.40:1
Frame rate mode : Variable
Frame rate : 23.976 fps
Color space : YUV
Chroma subsampling : 4:2:0
Bit depth : 8 bits
Scan type : Progressive
Bits/(Pixel*Frame) : 0.235
Stream size : 3.24 GiB (75%)
Title : For Hurtom by Zeus62
Writing library : core 112
Encoding settings : cabac=1 / ref=16 / deblock=1:-3:-3 / analyse=0x3:0x113 / me=umh / subme=10 / psy=1 / psy_rd=1,00:0,00 / mixed_ref=0 / me_range=64 / chroma_me=1 / trellis=2 / 8x8dct=1 / cqm=0 / deadzone=21,11 / fast_pskip=1 / chroma_qp_offset=-2 / threads=9 / sliced_threads=0 / nr=0 / decimate=1 / interlaced=0 / constrained_intra=0 / bframes=9 / b_pyramid=2 / b_adapt=1 / b_bias=0 / direct=1 / weightb=0 / open_gop=0 / weightp=2 / keyint=240 / keyint_min=23 / scenecut=40 / intra_refresh=0 / rc_lookahead=40 / rc=2pass / mbtree=1 / bitrate=3840 / ratetol=1,0 / qcomp=0,60 / qpmin=3 / qpmax=51 / qpstep=4 / cplxblur=20,0 / qblur=0,5 / ip_ratio=1,40 / aq=1:1,00
Language : Ukrainian
Default : Yes
Forced : No
Color primaries : BT.709-5, BT.1361, IEC 61966-2-4, SMPTE RP177
Transfer characteristics : BT.709-5, BT.1361
Matrix coefficients : BT.709-5, BT.1361, IEC 61966-2-4 709, SMPTE RP177

Audio #1
ID : 2
Format : AC-3
Format/Info : Audio Coding 3
Mode extension : CM (complete main)
Format settings, Endianness : Big
Codec ID : A_AC3
Duration : 2h 4mn
Bit rate mode : Constant
Bit rate : 384 Kbps
Channel(s) : 6 channels
Channel positions : Front: L C R, Side: L R, LFE
Sampling rate : 48.0 KHz
Bit depth : 16 bits
Compression mode : Lossy
Stream size : 341 MiB (8%)
Title : 1+1
Language : Ukrainian
Default : Yes
Forced : No

Audio #2
ID : 3
Format : AC-3
Format/Info : Audio Coding 3
Mode extension : CM (complete main)
Format settings, Endianness : Big
Codec ID : A_AC3
Duration : 2h 4mn
Bit rate mode : Constant
Bit rate : 384 Kbps
Channel(s) : 6 channels
Channel positions : Front: L C R, Side: L R, LFE
Sampling rate : 48.0 KHz
Bit depth : 16 bits
Compression mode : Lossy
Stream size : 341 MiB (8%)
Title : ТРК Україна, Інтер, ТНТ
Language : Ukrainian
Default : No
Forced : No

Audio #3
ID : 4
Format : AC-3
Format/Info : Audio Coding 3
Mode extension : CM (complete main)
Format settings, Endianness : Big
Codec ID : A_AC3
Duration : 2h 4mn
Bit rate mode : Constant
Bit rate : 384 Kbps
Channel(s) : 6 channels
Channel positions : Front: L C R, Side: L R, LFE
Sampling rate : 48.0 KHz
Bit depth : 16 bits
Compression mode : Lossy
Stream size : 341 MiB (8%)
Language : English
Default : No
Forced : No

Text
ID : 5
Format : UTF-8
Codec ID : S_TEXT/UTF8
Codec ID/Info : UTF-8 Plain Text
Language : English
Default : Yes
Forced : No
log:
[info]: frame I:3870 Avg QP:18,99 size: 67960 PSNR Mean Y:45,37 U:47,52 V:49,96 Avg:46,17 Global:45,83
[info]: frame P:111515 Avg QP:22,18 size: 24834 PSNR Mean Y:43,03 U:45,82 V:48,73 Avg:43,94 Global:43,54
[info]: frame B:63199 Avg QP:24,13 size: 8546 PSNR Mean Y:42,22 U:46,24 V:50,00 Avg:43,27 Global:42,67
[info]: consecutive B-frames: 39,1% 34,2% 13,8% 9,3% 2,6% 0,6% 0,1% 0,1% 0,0% 0,1%
[info]: mb I I16..4: 7,3% 81,5% 11,2%
[info]: mb P I16..4: 1,8% 8,8% 1,0% P16..4: 62,2% 12,7% 6,0% 0,0% 0,0% skip: 7,5%
[info]: mb B I16..4: 0,1% 0,4% 0,1% B16..8: 47,4% 5,4% 1,4% direct: 5,9% skip:39,3% L0:41,3% L1:48,4% BI:10,2%
[info]: 8x8 transform intra:77,0% inter:74,1%
[info]: coded y,uvDC,uvAC intra: 79,3% 78,0% 46,5% inter: 38,0% 37,9% 7,0%
[info]: i16 v,h,dc,p: 36% 18% 9% 37%
[info]: i8 v,h,dc,ddl,ddr,vr,hd,vl,hu: 10% 7% 4% 11% 16% 13% 15% 11% 13%
[info]: i4 v,h,dc,ddl,ddr,vr,hd,vl,hu: 18% 8% 3% 9% 14% 12% 14% 10% 13%
[info]: i8c dc,h,v,p: 38% 26% 18% 18%
[info]: Weighted P-Frames: Y:7,8% UV:5,8%
[info]: ref P L0: 44,5% 8,3% 16,1% 7,1% 5,3% 3,9% 3,4% 2,0% 1,8% 1,5% 1,4% 1,2% 1,1% 0,9% 0,9% 0,7%
[info]: ref B L0: 62,4% 15,5% 6,5% 3,6% 2,6% 2,2% 1,8% 1,2% 1,0% 0,9% 0,7% 0,6% 0,5% 0,5% 0,1%
[info]: ref B L1: 93,6% 6,4%
[info]: SSIM Mean Y:0,9683745 (15,000db)
[info]: PSNR Mean Y:42,794 U:46,003 V:49,208 Avg:43,754 Global:43,247 kb/s:3836,96
Скріншоти:
Original vs Encode




Три Ікси 2: Новий рівень / xXx: Next Level (2005) 720p 2xUkr/Eng | Sub Eng:

Три Ікси 2: Новий рівень / xXx: Next Level (2005) 720p 2xUkr/Eng | Sub Eng

Три ікси. Дилогія / xXx. Dilogy (2002-2005) 720p 2xUkr/Eng | Sub Eng


Жанр: екшн, бойовик
Країна: США



Кіностудія / кінокомпанія: Columbia Pictures Corporation
Режисер: Лі Тамахорі
Актори: Айс К'юб, Віллем Дефо, Семюель Л. Джексон, Ексзібіт, Джон Дж. Конноллі, Рамон Де Окампо

Сюжет:
Америка знову в небезпеці, і на цей раз біда прийшла звідки не чекали: удар по демократії був завданий зсередини! Группа високопоставлених заколотників в білому домі піднімає бунт з метою захоплення влади. Спецслужби безсилі — бунтовщики разгромили Агентство Національної Безпеки (АНБ). Країна на межі хаосу і террору, але в офіцера АНБ Огастеса Гіббонса, що дивом вижив, залишається останній козир, здатен спасти ситуацію. Це Даріус Стоун, крутий і холоднокровний суперагент XXI століття, відібраний по засекреченій програмі «Три Ікси». Залишаючи після себе смерть і разруху, цей человік-армія вступає в битву, яка вирішить долю Америки і всього світу…


Тривалість: 01:40:58
Якість:
Відео:
кодек:
розмір кадру: 1280 х 536
бітрейт: 4942 кб/с

Аудіо # 1:
мова: українська
переклад: двоголосий закадровий
кодек: 5.1
бітрейт: 384 кб/с

Аудіо # 2:
мова: українська
переклад: багатоголосий закадровий
кодек: 5.1
бітрейт: 384 кб/с

Аудіо # 3:
мова: англійська
переклад: оригінал
кодек: 5.1
бітрейт: 384 кб/с

Субтитри:
мова: англійська
тип: програмні (м'які)
формат: *.srt
MediaInfo:
ile size : 4.30 GiB
Duration : 1h 40mn
Overall bit rate : 6 095 Kbps
Encoded date : UTC 2012-04-25 22:53:15
Writing application : mkvmerge v5.5.0 ('Healer') built on Apr 7 2012 12:04:29
Writing library : libebml v1.2.2 + libmatroska v1.3.0

Video
ID : 1
Format : AVC
Format/Info : Advanced Video Codec
Format profile : [email protected]
Format settings, CABAC : Yes
Format settings, ReFrames : 16 frames
Codec ID : V_MPEG4/ISO/AVC
Duration : 1h 40mn
Bit rate : 4 942 Kbps
Width : 1 280 pixels
Height : 536 pixels
Display aspect ratio : 2.40:1
Frame rate mode : Variable
Frame rate : 23.976 fps
Color space : YUV
Chroma subsampling : 4:2:0
Bit depth : 8 bits
Scan type : Progressive
Bits/(Pixel*Frame) : 0.300
Stream size : 3.40 GiB (79%)
Title : For Hurtom by Zeus62
Writing library : core 112
Encoding settings : cabac=1 / ref=16 / deblock=1:-3:-3 / analyse=0x3:0x113 / me=umh / subme=10 / psy=1 / psy_rd=1,00:0,00 / mixed_ref=0 / me_range=64 / chroma_me=1 / trellis=2 / 8x8dct=1 / cqm=0 / deadzone=21,11 / fast_pskip=1 / chroma_qp_offset=-2 / threads=9 / sliced_threads=0 / nr=0 / decimate=1 / interlaced=0 / constrained_intra=0 / bframes=9 / b_pyramid=2 / b_adapt=1 / b_bias=0 / direct=1 / weightb=0 / open_gop=0 / weightp=2 / keyint=240 / keyint_min=23 / scenecut=40 / intra_refresh=0 / rc_lookahead=40 / rc=2pass / mbtree=1 / bitrate=4942 / ratetol=1,0 / qcomp=0,60 / qpmin=3 / qpmax=51 / qpstep=4 / cplxblur=20,0 / qblur=0,5 / ip_ratio=1,40 / aq=1:1,00
Language : Ukrainian
Default : Yes
Forced : No
Color primaries : BT.709-5, BT.1361, IEC 61966-2-4, SMPTE RP177
Transfer characteristics : BT.709-5, BT.1361
Matrix coefficients : BT.709-5, BT.1361, IEC 61966-2-4 709, SMPTE RP177

Audio #1
ID : 2
Format : AC-3
Format/Info : Audio Coding 3
Mode extension : CM (complete main)
Format settings, Endianness : Big
Codec ID : A_AC3
Duration : 1h 40mn
Bit rate mode : Constant
Bit rate : 384 Kbps
Channel(s) : 6 channels
Channel positions : Front: L C R, Side: L R, LFE
Sampling rate : 48.0 KHz
Bit depth : 16 bits
Compression mode : Lossy
Stream size : 277 MiB (6%)
Title : 1+1
Language : Ukrainian
Default : Yes
Forced : No

Audio #2
ID : 3
Format : AC-3
Format/Info : Audio Coding 3
Mode extension : CM (complete main)
Format settings, Endianness : Big
Codec ID : A_AC3
Duration : 1h 40mn
Bit rate mode : Constant
Bit rate : 384 Kbps
Channel(s) : 6 channels
Channel positions : Front: L C R, Side: L R, LFE
Sampling rate : 48.0 KHz
Bit depth : 16 bits
Compression mode : Lossy
Stream size : 277 MiB (6%)
Title : НТН
Language : Ukrainian
Default : No
Forced : No

Audio #3
ID : 4
Format : AC-3
Format/Info : Audio Coding 3
Mode extension : CM (complete main)
Format settings, Endianness : Big
Codec ID : A_AC3
Duration : 1h 40mn
Bit rate mode : Constant
Bit rate : 384 Kbps
Channel(s) : 6 channels
Channel positions : Front: L C R, Side: L R, LFE
Sampling rate : 48.0 KHz
Bit depth : 16 bits
Compression mode : Lossy
Stream size : 277 MiB (6%)
Language : English
Default : No
Forced : No

Text
ID : 5
Format : UTF-8
Codec ID : S_TEXT/UTF8
Codec ID/Info : UTF-8 Plain Text
Language : English
Default : No
Forced : No
log:
[info]: frame I:3870 Avg QP:18,99 size: 67960 PSNR Mean Y:45,37 U:47,52 V:49,96 Avg:46,17 Global:45,83
[info]: frame P:111515 Avg QP:22,18 size: 24834 PSNR Mean Y:43,03 U:45,82 V:48,73 Avg:43,94 Global:43,54
[info]: frame B:63199 Avg QP:24,13 size: 8546 PSNR Mean Y:42,22 U:46,24 V:50,00 Avg:43,27 Global:42,67
[info]: consecutive B-frames: 39,1% 34,2% 13,8% 9,3% 2,6% 0,6% 0,1% 0,1% 0,0% 0,1%
[info]: mb I I16..4: 7,3% 81,5% 11,2%
[info]: mb P I16..4: 1,8% 8,8% 1,0% P16..4: 62,2% 12,7% 6,0% 0,0% 0,0% skip: 7,5%
[info]: mb B I16..4: 0,1% 0,4% 0,1% B16..8: 47,4% 5,4% 1,4% direct: 5,9% skip:39,3% L0:41,3% L1:48,4% BI:10,2%
[info]: 8x8 transform intra:77,0% inter:74,1%
[info]: coded y,uvDC,uvAC intra: 79,3% 78,0% 46,5% inter: 38,0% 37,9% 7,0%
[info]: i16 v,h,dc,p: 36% 18% 9% 37%
[info]: i8 v,h,dc,ddl,ddr,vr,hd,vl,hu: 10% 7% 4% 11% 16% 13% 15% 11% 13%
[info]: i4 v,h,dc,ddl,ddr,vr,hd,vl,hu: 18% 8% 3% 9% 14% 12% 14% 10% 13%
[info]: i8c dc,h,v,p: 38% 26% 18% 18%
[info]: Weighted P-Frames: Y:7,8% UV:5,8%
[info]: ref P L0: 44,5% 8,3% 16,1% 7,1% 5,3% 3,9% 3,4% 2,0% 1,8% 1,5% 1,4% 1,2% 1,1% 0,9% 0,9% 0,7%
[info]: ref B L0: 62,4% 15,5% 6,5% 3,6% 2,6% 2,2% 1,8% 1,2% 1,0% 0,9% 0,7% 0,6% 0,5% 0,5% 0,1%
[info]: ref B L1: 93,6% 6,4%
[info]: SSIM Mean Y:0,9683745 (15,000db)
[info]: PSNR Mean Y:42,794 U:46,003 V:49,208 Avg:43,754 Global:43,247 kb/s:3836,96
Скріншоти:
Original vs Encode





Джерело: Власний ріп +
Подяка SweetN, xslim drakon87, Romario_O, robotron005, _oles за українські доріжки, realnitro - за українізацію постерів.
Особиста оцінка: 10 - без зайвих вагань рекомендую всім!


Срібний реліз (на рейтинг впливає 50% завантаженого)
 Трекер:    Зареєстрований   

Завантажити / скачати фільм українською



відео для новачків



 Зареєстрований:   2012-04-26 01:51
 Розмір:   8.63 GB 
 Оцінка фільму:   10/10 (Голосів: 11)
   
Інші релізи
ksander keys 
Новенький


З нами з: 08.07.12
Востаннє: 25.08.12
Повідомлень: 1

2012-07-09 11:49  
Будь-ласка допоможіть скачати даний фільм.
Ваш часовий пояс: GMT + 2 Години

Нова тема   Відповісти