Завантажити та скачати торренти українською


Воїн / Warrior (2011) 1080p 2хUkr/Eng | Sub Eng

Нові коментарі

Нова тема   Відповісти
Останній раз роздавалося natashelka (2016-12-08)
Автор Повідомлення
Andick 
Модератор відео та координатор поширення


З нами з: 03.11.09
Востаннє: 06.12.16
Повідомлень: 1499

2012-04-25 20:46  
Воїн / Warrior (2011) 1080p 2хUkr/Eng | Sub Eng


Альтернативні постери


Жанр: бойовик, драма, спорт
Країна: Великобританія

Top 250 #151

Кіностудія / кінокомпанія: Filmtribe, Lionsgate, Mimran Schur Pictures, Solaris, Tinsley Transfers Inc.
Режисер: Гевін О'Коннор
Актори: Том Харді, Джоел Едгертон, Дженніфер Моррісон, Нік Нолті, Кевін Данн, Максиміліанно Ернандез, Брайан Коллен, Сем Шерідан, Фернандо Чієн

Сюжет:
Томмі Конлон - молодий боєць, який повернувся додому після довгої відсутності, щоб приготуватися до участі у великому турнірі. Батько-п'яниця, у минулому талановитий боксер, починає тренувати сина. Томмі з успіхом проходить усі етапи змагання, але хто б міг подумати, що у фіналі доля зіштовхне його на ринзі... із власним братом.

Ріп від EbP

Тривалість: 02:19:54
Якість: 1080p
Відео:
кодек:
розмір кадру: 1920 х 800
бітрейт: 15 Мб/с

Аудіо # 1:
мова: українська
переклад: багатоголосий закадровий
кодек: 5.1
бітрейт: 1510 кб/с
джерело озвучення: "Студія Омікрон" на замовлення Hurtom.com
Інформація про українську доріжку
Українську озвучку створено студією Омікрон на замовлення Hurtom.com в рамках проекту "Хочеш кіно українською? Замовляй!"
В озвученні брали участь вісім професійних акторів.
Детальніше про проект.

Дякуємо користувачам, що фінансово допомогли проекту:
Sepoolka, ponedilok, любомир 75, zirka, VR Gizmo, xfsthe, Dobromyr, Pesko, Andy2, Wivern, Rost3, BMK12, somnambula, Риф, vanami, Зореліт, ppk21, Bushido, abat.andrew, yg, Bohdan Hiz, bolgar.vova, 801thebest, Mitrukhin, toljanuch, ValicV, willian, poman, gudtar, Dim-ON, Шейнога Станіслав, ptarik, arty777, braveboy, fishMD, Міхновський, sanyatyoma, ratbol, MutuLI, Alex :-) HYXT, NemoInFire, Golota, Руєвіт, TYRAEL, zolotoy, Nikson, knedlyk, leonidovod, maksym1990, Masanchickthefir, М_а_м_а_й, Анонім, Qualcuno.
Також дякуємо користувачам, що надали фінансову допомогу, але побажали бути анонімними.
Дакуємо трекеру Torrents.net.ua за підтримку проекту.

Детальніше про збір грошей.

Аудіо # 2:
мова: українська
переклад: багатоголосий закадровий
кодек: 5.1
бітрейт: 384 кб/с
джерело озвучення:
Ролі озвучують

Аудіо # 3:
мова: англійська
переклад: оригінал
кодек: 5.1
бітрейт: 1510 кб/с

Аудіо # 4:
мова: англійська
переклад: оригінал (коментарі)
кодек: 2.0
бітрейт: 224 кб/с

Субтитри:
мова: англійська, англійська (SDH)
тип: програмні (м'які)
формат: *.srt
MediaInfo
E:\HD\Warrior (2011) [2xUkr,Eng] 1080p [Hurtom].mkv
General
Unique ID : 249119036635332209416476603926105066070 (0xBB6A94CBF78A3D49A6AD57A0E92C8A56)
Complete name : E:\HD\Warrior (2011) [2xUkr,Eng] 1080p [Hurtom].mkv
Format : Matroska
File size : 18.2 GiB
Duration : 2h 19mn
Overall bit rate : 18.6 Mbps
Movie name : Âî¿í / Warrior (2011)
Encoded date : UTC 2012-04-25 18:23:37
Writing application : mkvmerge v5.5.0 ('Healer') built on Apr 6 2012 21:43:24
Writing library : libebml v1.2.3 + libmatroska v1.3.0
Video #1
ID : 1
Format : AVC
Format/Info : Advanced Video Codec
Format profile : [email protected]
Format settings, CABAC : Yes
Format settings, ReFrames : 5 frames
Codec ID : V_MPEG4/ISO/AVC
Duration : 2h 19mn
Bit rate : 15.0 Mbps
Width : 1 920 pixels
Height : 800 pixels
Display aspect ratio : 2.40:1
Frame rate : 23.976 fps
Color space : YUV
Chroma subsampling : 4:2:0
Bit depth : 8 bits
Scan type : Progressive
Bits/(Pixel*Frame) : 0.407
Stream size : 14.3 GiB (79%)
Title : гï â³ä EbP
Writing library : core 120 r2119 0637cd6
Encoding settings : cabac=1 / ref=5 / deblock=1:-3:-3 / analyse=0x3:0x133 / me=tesa / subme=10 / psy=1 / psy_rd=1.20:0.00 / mixed_ref=1 / me_range=16 / chroma_me=1 / trellis=2 / 8x8dct=1 / cqm=0 / deadzone=21,11 / fast_pskip=0 / chroma_qp_offset=-2 / threads=24 / sliced_threads=0 / nr=0 / decimate=0 / interlaced=0 / bluray_compat=0 / constrained_intra=0 / bframes=9 / b_pyramid=2 / b_adapt=2 / b_bias=0 / direct=3 / weightb=1 / open_gop=0 / weightp=2 / keyint=250 / keyint_min=23 / scenecut=40 / intra_refresh=0 / rc=2pass / mbtree=0 / bitrate=15000 / ratetol=1.0 / qcomp=0.60 / qpmin=0 / qpmax=69 / qpstep=4 / cplxblur=20.0 / qblur=0.5 / ip_ratio=1.40 / pb_ratio=1.30 / aq=2:0.55
Language : English
Audio #2
ID : 2
Format :
Format/Info : Digital Theater Systems
Codec ID : A_DTS
Duration : 2h 19mn
Bit rate mode : Constant
Bit rate : 1 510 Kbps
Channel(s) : 6 channels
Channel positions : Front: L C R, Side: L R, LFE
Sampling rate : 48.0 KHz
Bit depth : 24 bits
Compression mode : Lossy
Stream size : 1.48 GiB (8%)
Title : Áàãàòîãîëîñèé çàêàäðîâèé ("Îì³êðîí" íà çàìîâëåííÿ Hurtom.com)
Language : Ukrainian
Audio #3
ID : 3
Format : AC-3
Format/Info : Audio Coding 3
Mode extension : CM (complete main)
Codec ID : A_AC3
Duration : 2h 19mn
Bit rate mode : Constant
Bit rate : 384 Kbps
Channel(s) : 6 channels
Channel positions : Front: L C R, Side: L R, LFE
Sampling rate : 48.0 KHz
Bit depth : 16 bits
Compression mode : Lossy
Stream size : 384 MiB (2%)
Title : Áàãàòîãîëîñèé çàêàäðîâèé (ÍÒÍ)
Language : Ukrainian
Audio #4
ID : 4
Format :
Format/Info : Digital Theater Systems
Codec ID : A_DTS
Duration : 2h 19mn
Bit rate mode : Constant
Bit rate : 1 510 Kbps
Channel(s) : 6 channels
Channel positions : Front: L C R, Side: L R, LFE
Sampling rate : 48.0 KHz
Bit depth : 24 bits
Compression mode : Lossy
Stream size : 1.48 GiB (8%)
Title : Îðèã³íàë
Language : English
Audio #5
ID : 5
Format : AC-3
Format/Info : Audio Coding 3
Mode extension : CM (complete main)
Codec ID : A_AC3
Duration : 2h 19mn
Bit rate mode : Constant
Bit rate : 224 Kbps
Channel(s) : 2 channels
Channel positions : Front: L R
Sampling rate : 48.0 KHz
Bit depth : 16 bits
Compression mode : Lossy
Stream size : 224 MiB (1%)
Title : Commentary with Gavin O'Connor, Anthony Tambakis, Joel Edgerton
Language : English
Text #6
ID : 6
Format : UTF-8
Codec ID : S_TEXT/UTF8
Codec ID/Info : UTF-8 Plain Text
Language : English
Text #7
ID : 7
Format : UTF-8
Codec ID : S_TEXT/UTF8
Codec ID/Info : UTF-8 Plain Text
Title : SDH
Language : English
Скріншоти





Подяка urij546724 за зведення доріжки з НТН, та Gelios за українізовані постери

Джерело:
Особиста оцінка: 10 - без зайвих вагань рекомендую всім!


Авторський реліз (завантажувати можна без реєстрації)
 Трекер:    Зареєстрований   

Завантажити / скачати фільм українською



відео для новачків



 Зареєстрований:   2012-04-25 20:56
 Розмір:   18.2 GB 
 Оцінка фільму:   9.3/10 (Голосів: 21)
   
Інші релізи
   Обраний воїн / The One Warrior (2011) Arsenfpu  1 / 0   1.33 GB   2015-07-19 14:46 
   Воїн / Warrior (2011) 2xUkr/Eng | Sub Eng Gelios  3 / 0   2.18 GB   2014-02-13 08:47 
   Воїн / Warrior (2011) 720p-mini 2хUkr jamesum41  3 / 0   2.72 GB   2012-04-27 12:22 
   Воїн / Warrior (2011) Remux 2хUkr/Eng | Sub Eng Andick  0 / 0   30.98 GB   2012-04-26 16:15 
   Воїн / Warrior (2011) 720p 2хUkr/Eng | Sub Eng Andick  1 / 0   12.34 GB   2012-04-25 20:19 
   Воїн / Warrior (2011) Omikron  4 / 0   2.18 GB   2012-04-25 08:11 
lasmen 
VIP


З нами з: 08.12.11
Востаннє: 11.08.13
Повідомлень: 625

2012-04-28 07:55  
дві українські звукові доріжки, Happy приємно.
фільм чудовив і цікавий. хоч і дві години але не можна відірватися від нього.

lasmen 
VIP


З нами з: 08.12.11
Востаннє: 11.08.13
Повідомлень: 625

2012-04-29 20:10  
"Озвучено cпеціально для гуртом" то це подарунок Vampire-like teeth
alexandr_b 
Частий відвідувач


З нами з: 10.03.09
Востаннє: 28.11.16
Повідомлень: 26

2012-05-25 22:27  
Супер!!!
okzdp 
Поважний учасник


З нами з: 27.05.09
Востаннє: 09.12.16
Повідомлень: 209

2012-07-07 21:59  
Чудове кіно, дякую!
Leshchyshyn 
VIP


З нами з: 20.07.09
Востаннє: 02.12.16
Повідомлень: 470

2013-01-21 19:38  
Гадаю, помилочка получилась "1920 х 800 "
pyatachok 
Координатор літератури


З нами з: 30.01.10
Востаннє: 09.12.16
Повідомлень: 1337

2013-01-21 20:52  
Leshchyshyn
тут ж так і пише...
Andick написано:
розмір кадру: 1920 х 800

Leshchyshyn 
VIP


З нами з: 20.07.09
Востаннє: 02.12.16
Повідомлень: 470

2013-01-21 22:39  
pyatachok написано:
тут ж так і пише...

Я вважав, що це FullHD і що одруківочка получилась...кароч забудьте)

harmonic 
Частий відвідувач


З нами з: 01.01.11
Востаннє: 23.11.16
Повідомлень: 30

2013-03-03 14:23  
Класний фільм! Отримав задоволення від перегляду!
Дякую!

Scemp26 
Новенький


З нами з: 13.04.15
Востаннє: 08.12.16
Повідомлень: 7

2015-05-03 12:25  
Чудово скачав 49,1 % і все
Mr Yuran 
Відео Гуртом - команда HD
Відео Гуртом - команда HD


З нами з: 15.11.11
Востаннє: 09.12.16
Повідомлень: 378

2015-05-04 20:33  
Ваш часовий пояс: GMT + 2 Години

Нова тема   Відповісти