Завантажити та скачати торренти українською


Воїн / Warrior (2011) 720p 2хUkr/Eng | Sub Eng

Нові коментарі

Нова тема   Відповісти
Автор Повідомлення
Andick 
Модератор відео та координатор поширення


З нами з: 03.11.09
Востаннє: 29.11.16
Повідомлень: 1499

2012-04-25 20:19  
Воїн / Warrior (2011) 720p 2хUkr/Eng | Sub Eng


Альтернативні постери


Жанр: бойовик, драма, спорт
Країна: Великобританія

Top 250 #151

Кіностудія / кінокомпанія: Filmtribe, Lionsgate, Mimran Schur Pictures, Solaris, Tinsley Transfers Inc.
Режисер: Гевін О'Коннор
Актори: Том Харді, Джоел Едгертон, Дженніфер Моррісон, Нік Нолті, Кевін Данн, Максиміліанно Ернандез, Брайан Коллен, Сем Шерідан, Фернандо Чієн

Сюжет:
Томмі Конлон - молодий боєць, який повернувся додому після довгої відсутності, щоб приготуватися до участі у великому турнірі. Батько-п'яниця, у минулому талановитий боксер, починає тренувати сина. Томмі з успіхом проходить усі етапи змагання, але хто б міг подумати, що у фіналі доля зіштовхне його на ринзі... із власним братом.

Ріп від DON

Тривалість: 02:19:54
Якість: 720p
Відео:
кодек:
розмір кадру: 1280 х 534
бітрейт: 9000 кб/с

Аудіо # 1:
мова: українська
переклад: багатоголосий закадровий
кодек: 5.1
бітрейт: 1510 кб/с
джерело озвучення: "Студія Омікрон" на замовлення Hurtom.com
Інформація про українську доріжку
Українську озвучку створено студією Омікрон на замовлення Hurtom.com в рамках проекту "Хочеш кіно українською? Замовляй!"
В озвученні брали участь вісім професійних акторів.
Детальніше про проект.

Дякуємо користувачам, що фінансово допомогли проекту:
Sepoolka, ponedilok, любомир 75, zirka, VR Gizmo, xfsthe, Dobromyr, Pesko, Andy2, Wivern, Rost3, BMK12, somnambula, Риф, vanami, Зореліт, ppk21, Bushido, abat.andrew, yg, Bohdan Hiz, bolgar.vova, 801thebest, Mitrukhin, toljanuch, ValicV, willian, poman, gudtar, Dim-ON, Шейнога Станіслав, ptarik, arty777, braveboy, fishMD, Міхновський, sanyatyoma, ratbol, MutuLI, Alex :-) HYXT, NemoInFire, Golota, Руєвіт, TYRAEL, zolotoy, Nikson, knedlyk, leonidovod, maksym1990, Masanchickthefir, М_а_м_а_й, Анонім, Qualcuno.
Також дякуємо користувачам, що надали фінансову допомогу, але побажали бути анонімними.
Дакуємо трекеру Torrents.net.ua за підтримку проекту.

Детальніше про збір грошей.

Аудіо # 2:
мова: українська
переклад: багатоголосий закадровий
кодек: 5.1
бітрейт: 384 кб/с
джерело озвучення:
Ролі озвучують

Аудіо # 3:
мова: англійська
переклад: оригінал
кодек: 5.1
бітрейт: 1510 кб/с

Аудіо # 4:
мова: англійська
переклад: оригінал (коментарі)
кодек: 2.0
бітрейт: 224 кб/с

Субтитри:
мова: англійська, англійська (SDH)
тип: програмні (м'які)
формат: *.srt
MediaInfo
E:\HD\Warrior (2011) [2xUkr,Eng] 720p [Hurtom].mkv
General
Unique ID : 212954277534487988544741394687191794370 (0xA0358082583D3C03992E9E09956DC2C2)
Complete name : E:\HD\Warrior (2011) [2xUkr,Eng] 720p [Hurtom].mkv
Format : Matroska
File size : 12.3 GiB
Duration : 2h 19mn
Overall bit rate : 12.6 Mbps
Movie name : Âî¿í / Warrior (2011)
Encoded date : UTC 2012-04-25 17:24:00
Writing application : mkvmerge v5.5.0 ('Healer') built on Apr 6 2012 21:43:24
Writing library : libebml v1.2.3 + libmatroska v1.3.0
Video #1
ID : 1
Format : AVC
Format/Info : Advanced Video Codec
Format profile : [email protected]
Format settings, CABAC : Yes
Format settings, ReFrames : 12 frames
Codec ID : V_MPEG4/ISO/AVC
Duration : 2h 19mn
Bit rate : 9 000 Kbps
Width : 1 280 pixels
Height : 534 pixels
Display aspect ratio : 2.35:1
Frame rate : 23.976 fps
Color space : YUV
Chroma subsampling : 4:2:0
Bit depth : 8 bits
Scan type : Progressive
Bits/(Pixel*Frame) : 0.549
Stream size : 8.55 GiB (69%)
Title : гï â³ä DON
Writing library : core 120 r2120 0c7dab9
Encoding settings : cabac=1 / ref=12 / deblock=1:-3:-3 / analyse=0x3:0x133 / me=tesa / subme=11 / psy=1 / psy_rd=1.05:0.05 / mixed_ref=1 / me_range=24 / chroma_me=1 / trellis=2 / 8x8dct=1 / cqm=0 / deadzone=21,11 / fast_pskip=0 / chroma_qp_offset=-3 / threads=12 / sliced_threads=0 / nr=0 / decimate=0 / interlaced=0 / bluray_compat=0 / constrained_intra=0 / bframes=7 / b_pyramid=2 / b_adapt=2 / b_bias=0 / direct=3 / weightb=1 / open_gop=0 / weightp=2 / keyint=250 / keyint_min=23 / scenecut=40 / intra_refresh=0 / rc=2pass / mbtree=0 / bitrate=9000 / ratetol=1.0 / qcomp=0.60 / qpmin=0 / qpmax=69 / qpstep=4 / cplxblur=20.0 / qblur=0.5 / ip_ratio=1.40 / pb_ratio=1.30 / aq=1:0.60
Language : English
Audio #2
ID : 2
Format :
Format/Info : Digital Theater Systems
Codec ID : A_DTS
Duration : 2h 19mn
Bit rate mode : Constant
Bit rate : 1 510 Kbps
Channel(s) : 6 channels
Channel positions : Front: L C R, Side: L R, LFE
Sampling rate : 48.0 KHz
Bit depth : 24 bits
Compression mode : Lossy
Stream size : 1.48 GiB (12%)
Title : Áàãàòîãîëîñèé çàêàäðîâèé ("Îì³êðîí" íà çàìîâëåííÿ Hurtom.com)
Language : Ukrainian
Audio #3
ID : 3
Format : AC-3
Format/Info : Audio Coding 3
Mode extension : CM (complete main)
Codec ID : A_AC3
Duration : 2h 19mn
Bit rate mode : Constant
Bit rate : 384 Kbps
Channel(s) : 6 channels
Channel positions : Front: L C R, Side: L R, LFE
Sampling rate : 48.0 KHz
Bit depth : 16 bits
Compression mode : Lossy
Stream size : 384 MiB (3%)
Title : Áàãàòîãîëîñèé çàêàäðîâèé (ÍÒÍ)
Language : Ukrainian
Audio #4
ID : 4
Format :
Format/Info : Digital Theater Systems
Codec ID : A_DTS
Duration : 2h 19mn
Bit rate mode : Constant
Bit rate : 1 510 Kbps
Channel(s) : 6 channels
Channel positions : Front: L C R, Side: L R, LFE
Sampling rate : 48.0 KHz
Bit depth : 24 bits
Compression mode : Lossy
Stream size : 1.48 GiB (12%)
Title : Îðèã³íàë
Language : English
Audio #5
ID : 5
Format : AC-3
Format/Info : Audio Coding 3
Mode extension : CM (complete main)
Codec ID : A_AC3
Duration : 2h 19mn
Bit rate mode : Constant
Bit rate : 224 Kbps
Channel(s) : 2 channels
Channel positions : Front: L R
Sampling rate : 48.0 KHz
Bit depth : 16 bits
Compression mode : Lossy
Stream size : 224 MiB (2%)
Title : Commentary with Gavin O'Connor, Anthony Tambakis, Joel Edgerton
Language : English
Text #6
ID : 6
Format : UTF-8
Codec ID : S_TEXT/UTF8
Codec ID/Info : UTF-8 Plain Text
Language : English
Text #7
ID : 7
Format : UTF-8
Codec ID : S_TEXT/UTF8
Codec ID/Info : UTF-8 Plain Text
Title : SDH
Language : English
Скріншоти





Подяка urij546724 за зведення доріжки з НТН, та Gelios за українізовані постери

Джерело:
Особиста оцінка: 10 - без зайвих вагань рекомендую всім!


Авторський реліз (завантажувати можна без реєстрації)
 Трекер:    Зареєстрований   

Завантажити / скачати фільм українською



відео для новачків



 Зареєстрований:   2012-04-25 20:19
 Розмір:   12.34 GB 
 Оцінка фільму:   9.6/10 (Голосів: 24)
   
Інші релізи
   Обраний воїн / The One Warrior (2011) Arsenfpu  1 / 0   1.33 GB   2015-07-19 14:46 
   Воїн / Warrior (2011) 2xUkr/Eng | Sub Eng Gelios  9 / 0   2.18 GB   2014-02-13 08:47 
   Воїн / Warrior (2011) 720p-mini 2хUkr jamesum41  7 / 0   2.72 GB   2012-04-27 12:22 
   Воїн / Warrior (2011) Remux 2хUkr/Eng | Sub Eng Andick  1 / 0   30.98 GB   2012-04-26 16:15 
   Воїн / Warrior (2011) 1080p 2хUkr/Eng | Sub Eng Andick  1 / 0   18.2 GB   2012-04-25 20:56 
   Воїн / Warrior (2011) Omikron  12 / 0   2.18 GB   2012-04-25 08:11 
xfsthe 
Оцифрування книг Гуртом
Оцифрування книг Гуртом


З нами з: 13.02.11
Востаннє: 01.12.16
Повідомлень: 279

2012-04-25 21:03  
Andick написано:
бітрейт: 9000 кб/с

Andick написано:
 Розмір: 12.34 GB

щось тут явно переборщили з бітрейтом і відповідно з розміром файлу. файл занадто великий як для 720p

The_Marlboro 
Відео Гуртом - субтитрування
Відео Гуртом - субтитрування


З нами з: 23.05.10
Востаннє: 02.12.16
Повідомлень: 2854

2012-04-25 21:21  
xfsthe написано:
щось тут явно переборщили з бітрейтом і відповідно з розміром файлу. файл занадто великий як для 720p

ще не забувай про дві жирні доріжки, мабуть по 1,5 гб кожна.

xfsthe 
Оцифрування книг Гуртом
Оцифрування книг Гуртом


З нами з: 13.02.11
Востаннє: 01.12.16
Повідомлень: 279

2012-04-25 21:23  
TheMarlboro написано:
ще не забувай про дві жирні доріжки, мабуть по 1,5 гб кожна.

по
Andick написано:
Stream size : 1.48 GiB (12%)

Слоник24 
Відео Гуртом - підтримка та поширення
Відео Гуртом - підтримка та поширення


З нами з: 10.03.10
Востаннє: 02.12.16
Повідомлень: 228

2012-04-25 21:50  
Дякую автору за гарний фільм в чудовій якості!
Dim-ON 
VIP


З нами з: 02.06.10
Востаннє: 01.12.16
Повідомлень: 431

2012-04-25 23:25  
А ремуксик з українським ХД звуком варто чекати?
Andick 
Модератор відео та координатор поширення


З нами з: 03.11.09
Востаннє: 29.11.16
Повідомлень: 1499

2012-04-25 23:37  
Dim-ON написано:
А ремуксик з українським ХД звуком варто чекати?
так
сьогодні, після обіду, буде

Zeus62 
Відео Гуртом - команда HD
Відео Гуртом - команда HD


З нами з: 29.12.08
Востаннє: 16.11.16
Повідомлень: 330

2012-04-26 00:20  
Класний фільм. Дякую.
taras1994 
Почесний оцифрувальник літератури


З нами з: 23.03.12
Востаннє: 30.11.16
Повідомлень: 5096

2012-04-26 18:23  
Як для мене то це найкращий завантажений мною фільм(якщо критерієм оцінки є якість зображення, кількість звукових доріжок, наявність субтитрів, розмір файлу). От би побільше фільмів такого Формату на толоці.
merlin_zaraza 
Свій


З нами з: 20.06.09
Востаннє: 02.12.16
Повідомлень: 124

2012-04-26 20:13  
а золото буде?
The_Marlboro 
Відео Гуртом - субтитрування
Відео Гуртом - субтитрування


З нами з: 23.05.10
Востаннє: 02.12.16
Повідомлень: 2854

2012-04-26 20:19  
merlin_zaraza написано:
а золото буде?

а що його немає?

radagastr 
Відео Гуртом - фільмокрай
Відео Гуртом - фільмокрай


З нами з: 05.12.08
Востаннє: 01.12.16
Повідомлень: 1061

2012-04-26 20:35  
якщо не важко, зробіть легший трохи реліз... гектарів на 4-5 так
Mantikor 
Свій


З нами з: 23.03.09
Востаннє: 02.12.16
Повідомлень: 94

2012-04-29 19:17  
дякую за фільм. Я поповнив колекцію своїх фільмів завдяки Вам))Спасибі
Ваш часовий пояс: GMT + 2 Години

Нова тема   Відповісти