Завантажити та скачати торренти українською


Запах жінки / Scent of a Woman (1992) 720p Ukr/Eng | Sub Eng

Нові коментарі

Нова тема   Відповісти
Автор Повідомлення
xfsthe 
Оцифрування книг Гуртом
Оцифрування книг Гуртом


З нами з: 13.02.11
Востаннє: 07.12.16
Повідомлень: 279

2012-04-25 12:21  
Запах жінки / Scent of a Woman (1992) 720p Ukr/Eng | Sub Eng

Запах жінки / Scent of a Woman (1992) 720p Ukr/Eng | Sub Eng


Жанр: драма
Країна: США



Кіностудія / кінокомпанія: Universal Pictures, City Light Films
Режисер: Мартін Брест
Актори: Аль Пачіно, Кріс О `Доннелл, Джеймс Ребхорн, Габріель Анвар, Філіп Сеймур Хоффман, Річард Венчур, Бредлі Уітфорд, Рошелль Олівер, Маргарет Еджінтон, Том Рііс Фаррелл

Сюжет:
Настав День подяки і полковник розвідки, у відставці, Френк Слейд вирішує відсвяткувати свято, «побалувати» себе поїздкою до Нью-Йорку. Френк хоче провести свій останній «коронний вихід» за вищим розрядом: вишуканий готель, шикарний лімузин, дорога випивка та жінки приголомшливої краси.

Є лише дві проблемки. Перша: Френк сліпий. І друга: родичі полковника вирішують найняти за невелику суму наглядача, студента престижного коледжу Чарлі Сіммза. Останнє, що було потрібно в поїздці полковнику Слейду - так це «зелений» юнак Чарлі. Але сталося так, що подорож цих двох, не схожих один на одного людей, змінило їх життя назавжди.


Тривалість: 02:36:24
Якість: 720p
Відео:
розмір кадру: 1280 х 696
бітрейт: 6 489 кб/с

Аудіо #1:
мова: українська
переклад: багатоголосий закадровий
кодек: 5.1
бітрейт: 384 кб/с

Аудіо #2:
мова: англійська
переклад: оригінал
кодек: 5.1
бітрейт: 1509 кб/с

Субтитри #1:
мова: англійська
тип: програмні (м'які)
формат: *.srt
MediaInfo

General
Unique ID : 128299829330118888822408052309424333706 (0x6085A5F814B8A617152A2CEC151BE38A)
Complete name : /media/media/0_my_relises/Scent of a Woman (1992) [ukr,eng] sub[eng] 720p.mkv
Format : Matroska
Format version : Version 2
File size : 9.16 GiB
Duration : 2h 36mn
Overall bit rate : 8 385 Kbps
Movie name : Запах жінки / Scent of a Woman (1992) 720p
Encoded date : UTC 2012-04-25 08:46:55
Writing application : mkvmerge v5.0.1 ('Es ist Sommer') built on Oct 13 2011 14:41:12
Writing library : libebml v1.2.2 + libmatroska v1.3.0
Attachment : Yes / Yes

Video
ID : 1
Format : AVC
Format/Info : Advanced Video Codec
Format profile : [email protected]
Format settings, CABAC : Yes
Format settings, ReFrames : 8 frames
Codec ID : V_MPEG4/ISO/AVC
Duration : 2h 36mn
Bit rate : 6 490 Kbps
Width : 1 280 pixels
Height : 696 pixels
Display aspect ratio : 16:9
Frame rate : 23.976 fps
Color space : YUV
Chroma subsampling : 4:2:0
Bit depth : 8 bits
Scan type : Progressive
Bits/(Pixel*Frame) : 0.304
Stream size : 6.91 GiB (75%)
Title : Запах жінки / Scent of a Woman (1992) 720p
Writing library : core 104 r1688kMod 0b36c6d
Encoding settings : cabac=1 / ref=8 / deblock=1:-3:-2 / analyse=0x3:0x113 / me=umh / subme=10 / psy=1 / psy_rd=0.85:0.00 / mixed_ref=1 / me_range=32 / chroma_me=1 / trellis=2 / 8x8dct=1 / cqm=0 / deadzone=21,11 / fast_pskip=1 / chroma_qp_offset=-2 / threads=6 / sliced_threads=0 / nr=0 / decimate=1 / interlaced=0 / constrained_intra=0 / bframes=9 / b_pyramid=2 / b_adapt=2 / b_bias=0 / direct=3 / weightb=1 / open_gop=0 / weightp=2 / keyint=250 / keyint_min=23 / scenecut=40 / intra_refresh=0 / rc_lookahead=0 / rc=2pass / mbtree=0 / bitrate=6490 / ratetol=1.0 / qcomp=0.60 / qpmin=10 / qpmax=51 / qpstep=4 / cplxblur=20.0 / qblur=0.5 / vbv_maxrate=50000 / vbv_bufsize=62500 / ip_ratio=1.40 / pb_ratio=1.30 / aq=1:0.90 / zones=220590,224999,q=35 / nal_hrd=none
Language : English
Matrix coefficients : BT.709-5, BT.1361, IEC 61966-2-4 709, SMPTE RP177

Audio #1
ID : 2
Format : AC-3
Format/Info : Audio Coding 3
Mode extension : CM (complete main)
Codec ID : A_AC3
Duration : 2h 36mn
Bit rate mode : Constant
Bit rate : 384 Kbps
Channel(s) : 6 channels
Channel positions : Front: L C R, Side: L R, LFE
Sampling rate : 48.0 KHz
Bit depth : 16 bits
Compression mode : Lossy
Delay relative to video : 16ms
Stream size : 430 MiB (5%)
Title : 5.1 @ 384 kbps | Новий канал
Language : Ukrainian

Audio #2
ID : 3
Format :
Format/Info : Digital Theater Systems
Codec ID : A_DTS
Duration : 2h 36mn
Bit rate mode : Constant
Bit rate : 1 510 Kbps
Channel(s) : 6 channels
Channel positions : Front: L C R, Side: L R, LFE
Sampling rate : 48.0 KHz
Bit depth : 24 bits
Compression mode : Lossy
Stream size : 1.65 GiB (18%)
Title : 5.1 @ 1509 kbps
Language : English

Text
ID : 4
Format : UTF-8
Codec ID : S_TEXT/UTF8
Codec ID/Info : UTF-8 Plain Text
Language : English
Світлини:






Джерело: &
Особиста оцінка: не дивився.

Українську звукову доріжку взято з релізу пана Romario_O за що йому подяка.


Срібний реліз (на рейтинг впливає 50% завантаженого)
 Трекер:    Зареєстрований   

Завантажити / скачати фільм українською



відео для новачків



 Зареєстрований:   2012-04-25 12:21
 Розмір:   9.16 GB 
 Оцінка фільму:   9.9/10 (Голосів: 28)
   
Інші релізи
   Запах жінки / Scent of a Woman (1992) 2хUkr patriot2305  9 / 2   2.6 GB   2013-08-09 22:39 
Taras_patriot 
Новенький


З нами з: 06.06.10
Востаннє: 06.12.16
Повідомлень: 19

2015-10-07 20:33  
Станьте хтось на роздачу, будь ласка.
Ваш часовий пояс: GMT + 2 Години

Нова тема   Відповісти