Завантажити та скачати торренти українською


Шерлок Холмс: Дилогія / Sherlock Holmes: Dilogy (2009-2011) Remux Ukr/Eng | Sub Eng

Нові коментарі

Нова тема   Відповісти
Останній раз роздавалося talyndi (2016-12-11)
Автор Повідомлення
ratbol 
Модератор HD


З нами з: 03.02.09
Востаннє: 10.12.16
Повідомлень: 1088

2012-04-24 17:59  
Шерлок Холмс: Дилогія / Sherlock Holmes: Dilogy (2009-2011) Remux Ukr/Eng | Sub Eng



Жанр: екшн, пригодницький, детектив, кримінальний
Країна: Великобританія, США
Режисер: Гай Річі (Guy Ritchie)
Якість: Remux


Шерлок Холмс / Sherlock Holmes (2009) Remux Ukr/Eng | Sub Eng
Шерлок Холмс / Sherlock Holmes (2009) Remux Ukr/Eng | Sub Eng


Жанр: екшн, пригодницький, детектив, кримінальний
Країна: Великобританія, США



Кіностудія / кінокомпанія: Warner Brothers
Режисер: Гай Річі (Guy Ritchie)
Актори: Роберт Дауні мол. (Robert Downey Jr.), Джуд Лоу (Jude Law), Рейчел МакАдамс (Rachel McAdams), Марк Стронг (Mark Strong), Едді Марсан (Eddie Marsan), Роберт Мейллет (Robert Maillet), Джеральдін Джеймс (Geraldine James)

Сюжет:
Шерлок Холмс разом зі своїм вірним соратником Ватсоном вступають у сутичку, яка вимагає гарної фізичної та розумової підготовки, адже їх ворог представляє загрозу всьому Лондону.


Тривалість: 02:08:24
Якість: Remux
Відео:
кодек: VC-1
розмір кадру: 1920 х 1080
бітрейт: 19.9 Мбіт/с

Аудіо # 1:
мова: українська
переклад: професійний дубльований
кодек: 5.1
бітрейт: 448 Кбіт/с

Аудіо # 2:
мова: англійська
переклад: оригінал
кодек: -HD MA 5.1
бітрейт: 4 Mбіт/с

Джерело озвучення:


Субтитри # 1:
мова: українська (для французької мови)
тип: програмні (м'які)
формат: *.srt

Субтитри # 2:
мова: англійська (повні)
тип: програмні (м'які)
формат: *.srt
Субтитри # 3:
мова: англійська (для людей із вадами слуху)
тип: програмні (м'які)
формат: *.srt

MediaInfo
Код:
General
Unique ID                        : 172567984320414699482516389762103386321 (0x81D362852BB1E805BF81C20116FA20D1)
Complete name                    : E:\Sherlock Holmes. Dilogy (2009-2011) Remux [Hurtom]\Sherlock Holmes (2009) [Ukr, Eng] Remux.mkv
Format                           : Matroska
Format version                   : Version 2
File size                        : 21.7 GiB
Duration                         : 2h 8mn
Overall bit rate mode            : Variable
Overall bit rate                 : 24.2 Mbps
Movie name                       : Sherlock Holmes (2009)
Encoded date                     : UTC 2012-04-24 14:41:02
Writing application              : mkvmerge v3.2.0 ('Beginnings') built on Feb 12 2010 16:46:17
Writing library                  : libebml v0.7.9 + libmatroska v0.8.1

Video
ID                               : 1
Format                           : VC-1
Format profile                   : [email protected]
Codec ID                         : WVC1
Codec ID/Hint                    : Microsoft
Duration                         : 2h 8mn
Bit rate                         : 19.9 Mbps
Width                            : 1 920 pixels
Height                           : 1 080 pixels
Display aspect ratio             : 16:9
Frame rate                       : 23.976 fps
Chroma subsampling               : 4:2:0
Bit depth                        : 8 bits
Scan type                        : Progressive
Compression mode                 : Lossy
Bits/(Pixel*Frame)               : 0.400
Stream size                      : 17.9 GiB (82%)
Language                         : English
Default                          : Yes
Forced                           : No

Audio #1
ID                               : 2
Format                           : AC-3
Format/Info                      : Audio Coding 3
Mode extension                   : CM (complete main)
Codec ID                         : A_AC3
Duration                         : 2h 8mn
Bit rate mode                    : Constant
Bit rate                         : 448 Kbps
Channel(s)                       : 6 channels
Channel positions                : Front: L C R, Side: L R, LFE
Sampling rate                    : 48.0 KHz
Bit depth                        : 16 bits
Compression mode                 : Lossy
Stream size                      : 411 MiB (2%)
Title                            : 5.1 [448 Kbps] - дубльований, Blu-Ray CEE
Language                         : Ukrainian
Default                          : Yes
Forced                           : No

Audio #2
ID                               : 3
Format                           :
Format/Info                      : Digital Theater Systems
Format profile                   : MA / Core
Codec ID                         : A_DTS
Duration                         : 2h 8mn
Bit rate mode                    : Variable
Bit rate                         : 3 412 Kbps / 1 510 Kbps
Channel(s)                       : 6 channels
Channel positions                : Front: L C R, Side: L R, LFE
Sampling rate                    : 48.0 KHz
Bit depth                        : 24 bits
Compression mode                 : Lossless / Lossy
Title                            : -HD MA 5.1 [4 Mbps] - оригінал
Language                         : English
Default                          : No
Forced                           : No

Text #1
ID                               : 4
Format                           : UTF-8
Codec ID                         : S_TEXT/UTF8
Codec ID/Info                    : UTF-8 Plain Text
Title                            : форсовані для французької мови
Language                         : Ukrainian
Default                          : Yes
Forced                           : No

Text #2
ID                               : 5
Format                           : UTF-8
Codec ID                         : S_TEXT/UTF8
Codec ID/Info                    : UTF-8 Plain Text
Title                            : повні
Language                         : English
Default                          : No
Forced                           : No

Text #3
ID                               : 6
Format                           : UTF-8
Codec ID                         : S_TEXT/UTF8
Codec ID/Info                    : UTF-8 Plain Text
Title                            : для людей із вадами слуху
Language                         : English
Default                          : No
Forced                           : No


Шерлок Холмс: Гра тіней / Sherlock Holmes: A Game of Shadows (2011) Remux Ukr/Eng | Sub Eng
Шерлок Холмс: Гра тіней / Sherlock Holmes: A Game of Shadows (2011) Remux Ukr/Eng | Sub Eng


Жанр: екшн, пригодницький, детектив, кримінальний
Країна: США



Кіностудія / кінокомпанія: Warner Bros. Pictures, Village Roadshow Pictures
Режисер: Гай Річі (Guy Ritchie)
Актори: Роберт Дауні мол. (Robert Downey Jr.), Джуд Лоу (Jude Law), Нумі Рапейс, Рейчел МакАдамс (Rachel McAdams), Марк Стронг (Mark Strong), Джаред Харріс (Jared Harris), Стівен Фрай (Stephen Fry)

Сюжет:
Коли кронпринца Австрії знаходять мертвим, всі докази, на думку інспектора Лестрейда, вказують на самогубство. Проте Шерлок Холмс має іншу версію. На його думку, це вбивство — лише маленький шматочок набагато грандіознішої і зловіснішої мозаїки, створеної професором Моріарті. Розплутати цю змову – найбільший виклик за всю кар’єру.


Тривалість: 02:08:44
Якість: Remux
Відео:
кодек:
розмір кадру: 1920 х 1080
бітрейт: 20.6 Мбіт/с

Аудіо # 1:
мова: українська
переклад: професійний дубльований
кодек: 5.1
бітрейт: 448 Кбіт/с

Аудіо # 2:
мова: англійська
переклад: оригінал
кодек: -HD MA 5.1
бітрейт: 4 Mбіт/с

Джерело озвучення:


Субтитри:
мова: англійська
тип: програмні (м'які)
формат: *.srt

MediaInfo
Код:
General
Unique ID                        : 246803180665481342414538284708710106539 (0xB9AC90482DDC69CA93DCD71C7928C5AB)
Complete name                    : E:\Sherlock Holmes. Dilogy (2009-2011) Remux [Hurtom]\Sherlock Holmes. A Game of Shadows (2011) [Ukr, Eng] Remux.mkv
Format                           : Matroska
Format version                   : Version 2
File size                        : 20.7 GiB
Duration                         : 2h 8mn
Overall bit rate mode            : Variable
Overall bit rate                 : 23.1 Mbps
Movie name                       : Sherlock Holmes: A Game of Shadows (2011)
Encoded date                     : UTC 2012-04-24 14:31:11
Writing application              : mkvmerge v5.4.0 ('Piper') built on Mar 10 2012 13:34:39
Writing library                  : libebml v1.2.3 + libmatroska v1.3.0

Video
ID                               : 1
Format                           : AVC
Format/Info                      : Advanced Video Codec
Format profile                   : [email protected]
Format settings, CABAC           : Yes
Format settings, ReFrames        : 2 frames
Format settings, GOP             : M=1, N=10
Codec ID                         : V_MPEG4/ISO/AVC
Duration                         : 2h 8mn
Bit rate mode                    : Variable
Bit rate                         : 20.6 Mbps
Width                            : 1 920 pixels
Height                           : 1 080 pixels
Display aspect ratio             : 16:9
Frame rate                       : 23.976 fps
Color space                      : YUV
Chroma subsampling               : 4:2:0
Bit depth                        : 8 bits
Scan type                        : Progressive
Bits/(Pixel*Frame)               : 0.414
Stream size                      : 18.5 GiB (89%)
Language                         : English
Default                          : Yes
Forced                           : No

Audio #1
ID                               : 2
Format                           : AC-3
Format/Info                      : Audio Coding 3
Mode extension                   : CM (complete main)
Codec ID                         : A_AC3
Duration                         : 2h 8mn
Bit rate mode                    : Constant
Bit rate                         : 448 Kbps
Channel(s)                       : 6 channels
Channel positions                : Front: L C R, Side: L R, LFE
Sampling rate                    : 48.0 KHz
Bit depth                        : 16 bits
Compression mode                 : Lossy
Stream size                      : 413 MiB (2%)
Title                            : 5.1 [448 Kbps] - дубльований, Blu-Ray CEE
Language                         : Ukrainian
Default                          : Yes
Forced                           : No

Audio #2
ID                               : 3
Format                           :
Format/Info                      : Digital Theater Systems
Format profile                   : MA / Core
Codec ID                         : A_DTS
Duration                         : 2h 8mn
Bit rate mode                    : Variable
Bit rate                         : 1 561 Kbps / 1 510 Kbps
Channel(s)                       : 6 channels
Channel positions                : Front: L C R, Side: L R, LFE
Sampling rate                    : 48.0 KHz
Bit depth                        : 24 bits
Compression mode                 : Lossless / Lossy
Title                            : -HD MA 5.1 [4 Mbps] - оригінал
Language                         : English
Default                          : No
Forced                           : No

Text
ID                               : 4
Format                           : UTF-8
Codec ID                         : S_TEXT/UTF8
Codec ID/Info                    : UTF-8 Plain Text
Language                         : English
Default                          : No
Forced                           : No






Подяка braveboy за надані субтитри до першої частини.



Джерело:


Золотий реліз (завантажене не впливає на рейтинг)
 Трекер:    Зареєстрований   

Завантажити / скачати фільм українською



відео для новачків



 Зареєстрований:   2012-04-24 17:59
 Розмір:   42.48 GB 
 Оцінка фільму:   9.2/10 (Голосів: 26)
   
nass81 
Новенький


З нами з: 12.09.12
Востаннє: 17.02.13
Повідомлень: 11

2012-09-25 13:03  
станьте будь-ласка хтось на роздачу..
[email protected] 
Новенький


З нами з: 16.09.12
Востаннє: 10.12.16
Повідомлень: 6

2013-03-08 21:17  
Це просто культовий класнючий фільм!!! Ще й якість вражаюча!ДЯКУЮ! )
Nachtigall14 
Новенький


З нами з: 08.02.12
Востаннє: 04.11.13
Повідомлень: 2

2013-10-18 19:20  
Таа, багато заважила якість..
zanevsky 
Свій


З нами з: 14.03.09
Востаннє: 10.12.16
Повідомлень: 85

2014-01-14 18:12  
добродії, мо' хто допоможе кіна запомпувать?

дякую любо!

Virake 
Localize Team
Localize Team


З нами з: 07.07.09
Востаннє: 11.12.16
Повідомлень: 4077

2016-03-16 19:57  
та що ж це таке, вже другий тиждень вантажу.
Ваш часовий пояс: GMT + 2 Години

Нова тема   Відповісти