Завантажити та скачати торренти українською


Мумія: Гробниця Імператора Драконів / The Mummy: Tomb of the Dragon Emperor (2008) 720-mini Ukr/Eng | Sub Eng

Нові коментарі

Нова тема   Відповісти
Останній раз роздавалося Ed_50 (2016-11-05)
Автор Повідомлення
bntkm 
Свій


З нами з: 17.01.11
Востаннє: 04.12.16
Повідомлень: 136

2012-04-20 17:06  
Мумія: Гробниця Імператора Драконів / The Mummy: Tomb of the Dragon Emperor (2008) 720-mini Ukr/Eng | Sub Eng

Мумія: Гробниця Імператора Драконів / The Mummy: Tomb of the Dragon Emperor (2008) 720-mini Ukr/Eng | Sub Eng

Альтернативні постери
Мумія: Гробниця Імператора Драконів / The Mummy: Tomb of the Dragon Emperor (2008) 720-mini Ukr/Eng | Sub Eng
Мумія: Гробниця Імператора Драконів / The Mummy: Tomb of the Dragon Emperor (2008) 720-mini Ukr/Eng | Sub Eng
Мумія: Гробниця Імператора Драконів / The Mummy: Tomb of the Dragon Emperor (2008) 720-mini Ukr/Eng | Sub Eng
Жанр: пригодницький, екшн, фентезі, трилер, комедія, бойовик
Країна: США, Німеччина



Кіностудія / кінокомпанія: Universal Pictures, Studios Іnk, Nowita, Relativity Media, Sean Daniel
Режисер: Роб Коен
Сценарій: Альфред Гоф, Майлз Міллар, Джон Л. Болдерстон
Продюсер: Стівен Соммерс, Шон Деніел, Боб Дюксей
Актори: Брендан Фрейзер, Джет Лі, Марія Белло, Джон Ханна, Мішель Йео, Люк Форд, Ізабелла Люн, Ентоні Вонг Чау-Санг, Расселл Вонг

Сюжет:
Дія переноситься з Єгипту до Китаю. Дослідник Рік О'Коннелл повертається щоб боротися з воскреслим імператором Цинь Ши Хуан від давньокитайських катакомб до морозних гімалайських висот. У цьому йому допомагають його дружина Евелін, син Алекс та її брат Джонатан.


Тривалість: 01:51:40
Якість:
Відео:
кодек:
розмір кадру: 1280 х 536
бітрейт: 2177 кб/с

Аудіо # 1:
мова: українська
переклад: багатоголосий закадровий
кодек: 2.0
бітрейт: 192кб/с

Аудіо # 2:
мова: англійська
переклад: оригінал
кодек: 2.0
бітрейт: 192кб/с

Джерело озвучення:


Субтитри:
мова: англійська
тип: програмні (м'які)
формат: *.srt
MediaInfo

Format : Matroska
File size : 2.00 GiB
Duration : 1h 51mn
Overall bit rate : 2 563 Kbps
Encoded date : UTC 2012-04-20 16:14:21
Writing application : mkvmerge v4.4.0 ('Die Wiederkehr') сборка от Oct 31 2010 21:52:48
Writing library : libebml v1.0.0 + libmatroska v1.0.0
Video #1
ID : 1
Format : AVC
Format/Info : Advanced Video Codec
Format profile : [email protected]
Format settings, CABAC : Yes
Format settings, ReFrames : 6 frames
Codec ID : V_MPEG4/ISO/AVC
Duration : 1h 51mn
Bit rate : 2 177 Kbps
Width : 1 280 pixels
Height : 536 pixels
Display aspect ratio : 16:9
Original display aspect ratio : 2.40:1
Frame rate : 23.976 fps
Color space : YUV
Chroma subsampling : 4:2:0
Bit depth : 8 bits
Scan type : Progressive
Bits/(Pixel*Frame) : 0.132
Stream size : 1.66 GiB (83%)
Writing library : core 67 r1162M f7bfcfa
Encoding settings : cabac=1 / ref=6 / deblock=1:-3:-3 / analyse=0x3:0x113 / me=umh / subme=7 / psy_rd=1.0:0.0 / mixed_ref=1 / me_range=16 / chroma_me=1 / trellis=2 / 8x8dct=1 / cqm=2 / deadzone=21,11 / chroma_qp_offset=-2 / threads=3 / nr=0 / decimate=0 / mbaff=0 / bframes=3 / b_pyramid=1 / b_adapt=2 / b_bias=0 / direct=3 / wpredb=1 / keyint=250 / keyint_min=25 / scenecut=40 / rc=2pass / bitrate=2177 / ratetol=1.0 / qcomp=0.60 / qpmin=10 / qpmax=51 / qpstep=4 / cplxblur=20.0 / qblur=0.5 / ip_ratio=1.40 / pb_ratio=1.30 / aq=1:1.00
Language : English
Audio #2
ID : 2
Format : AC-3
Format/Info : Audio Coding 3
Mode extension : CM (complete main)
Codec ID : A_AC3
Duration : 1h 51mn
Bit rate mode : Constant
Bit rate : 192 Kbps
Channel(s) : 2 channels
Channel positions : Front: L R
Sampling rate : 48.0 KHz
Bit depth : 16 bits
Compression mode : Lossy
Stream size : 153 MiB (7%)
Audio #3
ID : 3
Format : AC-3
Format/Info : Audio Coding 3
Mode extension : CM (complete main)
Codec ID : A_AC3
Duration : 1h 51mn
Bit rate mode : Constant
Bit rate : 192 Kbps
Channel(s) : 2 channels
Channel positions : Front: L R
Sampling rate : 48.0 KHz
Bit depth : 16 bits
Compression mode : Lossy
Stream size : 153 MiB (7%)
Text #4
ID : 4
Format : UTF-8
Codec ID : S_TEXT/UTF8
Codec ID/Info : UTF-8 Plain Text
Language : English
Скріншоти



Особиста оцінка: 10 - без зайвих вагань рекомендую всім!


 Трекер:    Зареєстрований   

Завантажити / скачати фільм українською



відео для новачків



 Зареєстрований:   2012-04-20 18:29
 Розмір:   2 GB 
 Оцінка фільму:   10/10 (Голосів: 23)
   
braveboy 
Відео Гуртом - команда HD
Відео Гуртом - команда HD


З нами з: 15.06.10
Востаннє: 29.10.16
Повідомлень: 958

2012-04-20 17:31  
виправ
bntkm написано:
кодек: MPEG-4


кодек:

bntkm написано:
тип: пререндерні


тип: програмні (м'які)

bntkm написано:

MediaInfo
Muxing mode : Header stripping


відключити компресію заголовків
інструкція тут http://toloka.to/t31095
Цитата:

Скріншоти

скріншоти повинні бути у форматі png

bntkm 
Свій


З нами з: 17.01.11
Востаннє: 04.12.16
Повідомлень: 136

2012-04-20 18:30  
braveboy
Виправив

ASCARON1927 
Новенький


З нами з: 03.02.10
Востаннє: 11.05.15
Повідомлень: 9

2014-02-12 21:32  
станьте будь-ласка на роздачу.
Наперед вдячний.

Ваш часовий пояс: GMT + 2 Години

Нова тема   Відповісти