Завантажити та скачати торренти українською


Недоторканні / 1+1 / Intouchables (2011) 720p Ukr/Fra | sub Ukr/Fra/Eng

Нові коментарі

Нова тема   Відповісти
Останній раз роздавалося Raspberryspirit (2016-12-10)
Автор Повідомлення
Andick 
Модератор відео та координатор поширення


З нами з: 03.11.09
Востаннє: 06.12.16
Повідомлень: 1499

2012-04-19 18:51  


Недоторканні / 1+1 / Intouchables (2011) 720p Ukr/Fra | sub Ukr/Fra/Eng



Альтернативний постер




Жанр: комедія, драма
Країна: Франція
Top 250 #128
Top 250 #8

Кіностудія / кінокомпанія Quad Productions, Chaocorp, Gaumont
Режисер: Олів'є Накаш / Olivier Nakache, Ерік Толедано / Eric Toledano.
Актори/ролі озвучують: Франсуа Клюзе / François Cluzet, Омар Сі / Omar Sy, Анн Ле Ні / Anne Le Ny, Одрі Флеро / Audrey Fleurot, Клотільд Молле / Clotilde Mollet, Альба Гайя Крагеде Беллуджі / Alba Gaïa Kraghede Bellugi, Сіріл Менді / Cyril Mendy, Крістіан Амері / Christian Ameri, Грегуар Eстерманн / Grégoire Oestermann, Жозефін де Мо / Joséphine de Meaux .
Сюжет:
Ставши інвалідом в результаті нещасного випадку, багатій Філіп наймає в помічники людину, що менше всього підходить для цієї роботи - молодого мешканця нетрів Дрісса, який щойно звільнився з в'язниці. Незважаючи на те, що Філіп прикутий до інвалідного крісла, Дріссу вдається привнести в розмірене існування багатія дух пригод та жагу життя.

Нагороди та номінації

Cesar 2012

Перемога: Найкращій актор - Омар Сі

Ноінація: Найкраща акторка другого плану - Анн Ле Ні; Найкращий сценарій - Олів'є Накаш, Ерік Толедано; Найкращий звукорежисер; Найкращий оператор; Найкращий монтаж; Найкраща реалізація; Найкращий фільм


Ріп від EbP

Тривалість: 01:52:02
Якість: 720p
Відео:
кодек:
розмір кадру: 1280 х 694
бітрейт: 6787 кб/с

Аудіо # 1:
мова: українська
переклад: багатоголосий закадровий
кодек: 5.1
бітрейт: 1510 кб/с

Аудіо # 2:
мова: французька
переклад: оригінал
кодек: 5.1
бітрейт: 1510 кб/с

Субтитри:
мова: українська, французька, англійська
тип: програмні (м'які)
формат: *.srt
Переклад: Gashik
Редактор: Сеник Ольга
Ролі озвучили: Mister rock, Ліра Грім, Вадим re:porter, Ігор Гонщик, Тетяна ТараТаран
Монтаж звуку: Vitall_Digitall
Координатор проекту: Mirqn
Подяка за роботу з субтитрами AlanAlan
Подяка за постер: Gelios і thefir
MediaInfo
General
Unique ID : 170761493618192946307787166380519006408 (0x807777A6EBAEC47691488501822320C8)
Complete name : E:\HD\Intouchables (2011) [ukr,fre] 720p [Hurtom].mkv
Format : Matroska
Format version : Version 2
File size : 7.80 GiB
Duration : 1h 52mn
Overall bit rate : 9 970 Kbps
Movie name : Недоторканні / Intouchables (2011)
Encoded date : UTC 2012-04-19 16:25:49
Writing application : mkvmerge v5.5.0 ('Healer') built on Apr 6 2012 21:43:24
Writing library : libebml v1.2.3 + libmatroska v1.3.0

Video
ID : 1
Format : AVC
Format/Info : Advanced Video Codec
Format profile : [email protected]
Format settings, CABAC : Yes
Format settings, ReFrames : 9 frames
Codec ID : V_MPEG4/ISO/AVC
Duration : 1h 52mn
Bit rate : 6 752 Kbps
Width : 1 280 pixels
Height : 694 pixels
Display aspect ratio : 16:9
Frame rate : 24.000 fps
Color space : YUV
Chroma subsampling : 4:2:0
Bit depth : 8 bits
Scan type : Progressive
Bits/(Pixel*Frame) : 0.317
Stream size : 5.28 GiB (68%)
Title : Intouchables.2011.720p.BluRay.DD5.1.-EbP
Writing library : core 122 r2184 5c85e0a
Encoding settings : cabac=1 / ref=9 / deblock=1:-3:-3 / analyse=0x3:0x113 / me=tesa / subme=11 / psy=1 / psy_rd=1.10:0.00 / mixed_ref=1 / me_range=16 / chroma_me=1 / trellis=2 / 8x8dct=1 / cqm=0 / deadzone=21,11 / fast_pskip=0 / chroma_qp_offset=-2 / threads=6 / sliced_threads=0 / nr=0 / decimate=0 / interlaced=0 / bluray_compat=0 / constrained_intra=0 / bframes=10 / b_pyramid=2 / b_adapt=2 / b_bias=0 / direct=3 / weightb=1 / open_gop=0 / weightp=2 / keyint=250 / keyint_min=24 / scenecut=40 / intra_refresh=0 / rc=crf / mbtree=0 / crf=17.6 / qcomp=0.70 / qpmin=0 / qpmax=69 / qpstep=4 / ip_ratio=1.40 / pb_ratio=1.30 / aq=1:0.50 / zones=24796,26116,crf=17.1/56531,64210,crf=17.1
Language : French
Default : Yes
Forced : No
Color primaries : BT.709-5, BT.1361, IEC 61966-2-4, SMPTE RP177
Transfer characteristics : BT.709-5, BT.1361
Matrix coefficients : BT.709-5, BT.1361, IEC 61966-2-4 709, SMPTE RP177

Audio #1
ID : 2
Format :
Format/Info : Digital Theater Systems
Codec ID : A_DTS
Duration : 1h 52mn
Bit rate mode : Constant
Bit rate : 1 510 Kbps
Channel(s) : 6 channels
Channel positions : Front: L C R, Side: L R, LFE
Sampling rate : 48.0 KHz
Bit depth : 24 bits
Compression mode : Lossy
Stream size : 1.18 GiB (15%)
Title : Багатоголосий закадровий (Hurtom.com)
Language : Ukrainian
Default : Yes
Forced : No

Audio #2
ID : 3
Format :
Format/Info : Digital Theater Systems
Codec ID : A_DTS
Duration : 1h 52mn
Bit rate mode : Constant
Bit rate : 1 510 Kbps
Channel(s) : 6 channels
Channel positions : Front: L C R, Side: L R, LFE
Sampling rate : 48.0 KHz
Bit depth : 24 bits
Compression mode : Lossy
Stream size : 1.18 GiB (15%)
Title : Оригінал
Language : French
Default : No
Forced : No

Text #1
ID : 4
Format : UTF-8
Codec ID : S_TEXT/UTF8
Codec ID/Info : UTF-8 Plain Text
Language : Ukrainian
Default : No
Forced : No

Text #2
ID : 5
Format : UTF-8
Codec ID : S_TEXT/UTF8
Codec ID/Info : UTF-8 Plain Text
Language : French
Default : No
Forced : No

Text #3
ID : 6
Format : UTF-8
Codec ID : S_TEXT/UTF8
Codec ID/Info : UTF-8 Plain Text
Language : English
Default : No
Forced : No

Menu
00:00:00.000 : en:Chapter 1
00:07:26.000 : en:Chapter 2
00:12:54.375 : en:Chapter 3
00:18:56.667 : en:Chapter 4
00:26:51.958 : en:Chapter 5
00:30:50.708 : en:Chapter 6
00:37:26.208 : en:Chapter 7
00:42:05.667 : en:Chapter 8
00:48:45.333 : en:Chapter 9
00:54:26.250 : en:Chapter 10
00:58:02.708 : en:Chapter 11
01:04:06.833 : en:Chapter 12
01:14:27.042 : en:Chapter 13
01:21:39.833 : en:Chapter 14
01:29:26.125 : en:Chapter 15
01:35:56.875 : en:Chapter 16
01:40:22.042 : en:Chapter 17
01:45:12.542 : en:Chapter 18
Скріншоти





Джерело:
Особиста оцінка: 10 - без зайвих вагань рекомендую всім!


Золотий реліз (завантажене не впливає на рейтинг)
 Трекер:    Зареєстрований   

Завантажити / скачати фільм українською



відео для новачків



 Зареєстрований:   2012-04-19 18:51
 Розмір:   7.8 GB 
 Оцінка фільму:   9.8/10 (Голосів: 20)
   
Mirqn 
Відео Гуртом - координатор озвучення


З нами з: 17.06.09
Востаннє: 27.07.15
Повідомлень: 2462

2012-04-19 18:55  
1080 зробиш?)
Andick 
Модератор відео та координатор поширення


З нами з: 03.11.09
Востаннє: 06.12.16
Повідомлень: 1499

2012-04-19 18:57  
Mirqn написано:
1080 зробиш?)
Гість зробить Happy
Віктор 
Відео Гуртом - субтитрування
Відео Гуртом - субтитрування


З нами з: 09.01.10
Востаннє: 09.12.16
Повідомлень: 8664

2012-04-19 19:38  
Andick написано:
Гість зробить Happy

Коли саме? щоб я з тим недооформленим не морочився.

Andick 
Модератор відео та координатор поширення


З нами з: 03.11.09
Востаннє: 06.12.16
Повідомлень: 1499

2012-04-19 19:50  
w2958l написано:
Коли саме?
незнаю, ну але зазвичай швидко релізить
Mirqn 
Відео Гуртом - координатор озвучення


З нами з: 17.06.09
Востаннє: 27.07.15
Повідомлень: 2462

2012-04-19 21:15  
Додай плиз посилання на інші релізи http://toloka.to/tracker.php?nm=Intouchables )
Andick 
Модератор відео та координатор поширення


З нами з: 03.11.09
Востаннє: 06.12.16
Повідомлень: 1499

2012-04-19 21:29  
Mirqn написано:
Додай плиз посилання на інші релізи
посилання мають бути під спойлером Інші релізи, який автоматично генерується
видно знов баги якісь на толоці, коли толоку попустить тоді і зявиться Happy

Anonymous 







2012-04-19 21:57  
w2958l написано:
щоб я з тим недооформленим не морочився.

це коли таке було?

Andick 
Модератор відео та координатор поширення


З нами з: 03.11.09
Востаннє: 06.12.16
Повідомлень: 1499

2012-04-19 21:59  
Гість написано:
це коли таке було?
то він про оце http://toloka.to/t35422 Happy
Слоник24 
Відео Гуртом - підтримка та поширення
Відео Гуртом - підтримка та поширення


З нами з: 10.03.10
Востаннє: 09.12.16
Повідомлень: 228

2012-04-19 22:05  
Гарне кіно!
автору вельми вдячний.

Anonymous 







2012-04-19 22:09  
Andick
ясно)))

Слоник24
полюбому, цінуємо таку роботу

Wizard_Harry 
Свій


З нами з: 11.10.13
Востаннє: 09.12.16
Повідомлень: 111

2015-03-04 12:52  
Файне кіно, дякую)
Ваш часовий пояс: GMT + 2 Години

Нова тема   Відповісти