Завантажити та скачати торренти українською


Інший світ 4: Пробудження / Underworld: Awakening (2012) 720p-mini

Нові коментарі

Нова тема   Відповісти
Останній раз роздавалося Sergiy00 (2016-12-06)
Автор Повідомлення
Drool 
VIP


З нами з: 17.04.10
Востаннє: 08.12.16
Повідомлень: 1270

2012-04-19 17:54  
Інший світ 4: Пробудження / Underworld: Awakening (2012) 720p-mini

Жанр: жахи, фентезі, бойовик
Країна: США



Кіностудія / кінокомпанія: Lakeshore Entertainment
Режисер: Манс Марлінд, Бйорн Стейн
Актори: Кейт Бекінсейл, Стівен Рі, Майкл Ілі, Тео Джеймс, Індія Айлі, Чарльз Денс, Крістен Холден-Рід, Сандрін Холт, Річард Цетрон, Сенні Ван Хетерен

Сюжет:
Через дванадцять років в стані, близькому до коматозного, Селін дізнається про існування рідної чотирнадцятирічної дочки Нісси — гібрида вампіра і лікана. Тепер Селін необхідно перешкодити БіоКом створити суперліканів, які знищать їх усіх.


Тривалість: 01:28:34
Якість: 720p-mini
Відео:
кодек:
розмір кадру: 1280x532
бітрейт: 3020 кб/с

Аудіо:
мова: українська
переклад: професійний дубльований
кодек: 5.1
бітрейт: 448 кб/с

Джерело озвучення:
MediaInfo
General
Unique ID : 210551500558637667150007466389655939824 (0x9E66BE7538A50DDFA8DCE1A9BBAA6AF0)
Complete name : /mnt/disk_d/Video/Films/Underworld.Awakening.Ukr.2012.720p.UAGet.mkv
Format : Matroska
File size : 2.15 GiB
Duration : 1h 28mn
Overall bit rate : 3 469 Kbps
Movie name : Інший світ 4: Пробудження / Underworld: Awakening (2012) 720p-mini -=UAGet=-
Encoded date : UTC 2012-04-19 13:57:23
Writing application : mkvmerge v3.4.0 ('Rapunzel') збірка від May 15 2010 09:38:20
Writing library : libebml v0.8.0 + libmatroska v0.9.0

Video
ID : 1
Format : AVC
Format/Info : Advanced Video Codec
Format profile : [email protected]
Format settings, CABAC : Yes
Format settings, ReFrames : 3 frames
Format settings, GOP : M=1, N=48
Codec ID : V_MPEG4/ISO/AVC
Duration : 1h 28mn
Bit rate : 3 020 Kbps
Width : 1 280 pixels
Height : 532 pixels
Display aspect ratio : 2.40:1
Frame rate mode : Variable
Frame rate : 23.976 fps
Color space : YUV
Chroma subsampling : 4:2:0
Bit depth : 8 bits
Scan type : Progressive
Bits/(Pixel*Frame) : 0.185
Stream size : 1.83 GiB (85%)
Title : Інший світ 4: Пробудження 720p-mini -=UAGet=-
Writing library : core 112
Encoding settings : cabac=1 / ref=4 / deblock=1:-2:-1 / analyse=0x3:0x133 / me=umh / subme=10 / psy=1 / psy_rd=1.10:0.00 / mixed_ref=1 / me_range=24 / chroma_me=1 / trellis=2 / 8x8dct=1 / cqm=0 / deadzone=21,11 / fast_pskip=1 / chroma_qp_offset=-2 / threads=2 / sliced_threads=0 / nr=0 / decimate=0 / interlaced=0 / constrained_intra=0 / bframes=3 / b_pyramid=1 / b_adapt=2 / b_bias=0 / direct=3 / weightb=1 / open_gop=0 / weightp=2 / keyint=240 / keyint_min=23 / scenecut=40 / intra_refresh=0 / rc_lookahead=40 / rc=2pass / mbtree=1 / bitrate=3020 / ratetol=1.0 / qcomp=0.60 / qpmin=3 / qpmax=51 / qpstep=4 / cplxblur=20.0 / qblur=0.5 / ip_ratio=1.40 / aq=1:1.10
Color primaries : BT.709-5, BT.1361, IEC 61966-2-4, SMPTE RP177
Transfer characteristics : BT.709-5, BT.1361
Matrix coefficients : BT.709-5, BT.1361, IEC 61966-2-4 709, SMPTE RP177

Audio
ID : 2
Format : AC-3
Format/Info : Audio Coding 3
Mode extension : CM (complete main)
Codec ID : A_AC3
Duration : 1h 28mn
Bit rate mode : Constant
Bit rate : 448 Kbps
Channel(s) : 6 channels
Channel positions : Front: L C R, Side: L R, LFE
Sampling rate : 48.0 KHz
Bit depth : 16 bits
Compression mode : Lossy
Stream size : 284 MiB (13%)
Title : Українська
Language : Ukrainian
Скріншоти






Джерело:
Особиста оцінка: 8 - мені сподобалося


 Трекер:    Зареєстрований   

Завантажити / скачати фільм українською



відео для новачків



 Зареєстрований:   2012-04-19 17:54
 Розмір:   2.15 GB 
 Оцінка фільму:   8.9/10 (Голосів: 14)
   
женя1991 
Новенький


З нами з: 06.03.14
Востаннє: 07.12.16
Повідомлень: 1

2014-12-23 21:38  
Фільм супер
Ваш часовий пояс: GMT + 2 Години

Нова тема   Відповісти