Завантажити та скачати торренти українською


Інший світ 4: Пробудження / Underworld: Awakening (2012) 1080p Ukr/Eng | Sub Eng

Нові коментарі

Нова тема   Відповісти
Автор Повідомлення
ratbol 
Модератор HD


З нами з: 03.02.09
Востаннє: 01.12.16
Повідомлень: 1088

2012-04-18 15:50  
Інший світ 4: Пробудження / Underworld: Awakening (2012) 1080p Ukr/Eng | Sub Eng


«Vengeance Returns»


Жанр: жахи, фентезі, бойовик
Країна: США



Кіностудія / кінокомпанія: Lakeshore Entertainment
Режисер: Монс Морлінд, Бьерн Стейн
Актори: Кейт Бекінсейл, Стівен Рі, Майкл Або, Тео Джеймс, Індія Айлі, Чарльз Денс, Крістен Холден-Рід, Сандрін Холт, Річард Цетрон, Сенні Ван Хетерен

Сюжет:
Через 12 років в стані, близькому до коматозного, Селін дізнається про існування рідної дочки Єви - гібрида вампіра і лікана. І Селін необхідно перешкодити Біоком створити суперліканів, які вб'ють їх усіх.


Тривалість: 01:28:34
Якість:
Відео:
кодек:
розмір кадру: 1920 х 800
бітрейт: 6 759 Кбіт/с

Аудіо # 1:
мова: українська
переклад: професійний дубльований
кодек: 5.1
бітрейт: 640 Кбіт/с

Аудіо # 2:
мова: англійська
переклад: оригінал
кодек: 5.1
бітрейт: 1510 Кбіт/с

Аудіо # 3:
мова: англійська
переклад: коментарі творців
кодек: 2.0
бітрейт: 192 Кбіт/с

Джерело озвучення:


Субтитри # 1:
мова: англійська (форсовані)
тип: програмні (м'які)
формат: *.srt

Субтитри # 2:
мова: англійська
тип: програмні (м'які)
формат: *.srt

Субтитри # 3:
мова: англійська (коментарі творців)
тип: програмні (м'які)
формат: *.srt

MediaInfo
Код:
General
Unique ID                        : 200817002886880513615830241630506138903 (0x9713F2AAE5D8F3409F0FAE5A57EB3D17)
Complete name                    : E:\Інший світ\Underworld. Awakening (2012) [Ukr, Eng] 1080p [Hurtom].mkv
Format                           : Matroska
Format version                   : Version 2
File size                        : 5.75 GiB
Duration                         : 1h 28mn
Overall bit rate                 : 9 286 Kbps
Movie name                       : Underworld: Awakening (2012) [Hurtom]
Encoded date                     : UTC 2012-04-18 13:28:08
Writing application              : mkvmerge v5.4.0 ('Piper') built on Mar 10 2012 13:34:39
Writing library                  : libebml v1.2.3 + libmatroska v1.3.0

Video
ID                               : 1
Format                           : AVC
Format/Info                      : Advanced Video Codec
Format profile                   : [email protected]
Format settings, CABAC           : Yes
Format settings, ReFrames        : 4 frames
Codec ID                         : V_MPEG4/ISO/AVC
Duration                         : 1h 28mn
Bit rate                         : 6 759 Kbps
Width                            : 1 920 pixels
Height                           : 800 pixels
Display aspect ratio             : 2.40:1
Frame rate                       : 23.976 fps
Color space                      : YUV
Chroma subsampling               : 4:2:0
Bit depth                        : 8 bits
Scan type                        : Progressive
Bits/(Pixel*Frame)               : 0.184
Stream size                      : 4.18 GiB (73%)
Title                            : AVC [6 747 Kbps]
Writing library                  : core 122 r2184 5c85e0a
Encoding settings                : cabac=1 / ref=4 / deblock=1:-3:-3 / analyse=0x3:0x113 / me=umh / subme=10 / psy=1 / psy_rd=1.00:0.00 / mixed_ref=1 / me_range=32 / chroma_me=1 / trellis=2 / 8x8dct=1 / cqm=0 / deadzone=21,11 / fast_pskip=0 / chroma_qp_offset=-2 / threads=18 / sliced_threads=0 / nr=0 / decimate=0 / interlaced=0 / bluray_compat=0 / constrained_intra=0 / bframes=8 / b_pyramid=2 / b_adapt=2 / b_bias=0 / direct=3 / weightb=1 / open_gop=0 / weightp=2 / keyint=240 / keyint_min=22 / scenecut=40 / intra_refresh=0 / rc_lookahead=60 / rc=crf / mbtree=0 / crf=17.0 / qcomp=0.60 / qpmin=0 / qpmax=69 / qpstep=4 / vbv_maxrate=50000 / vbv_bufsize=62500 / crf_max=0.0 / nal_hrd=none / ip_ratio=1.40 / pb_ratio=1.30 / aq=2:0.80
Language                         : English
Default                          : Yes
Forced                           : No
Matrix coefficients              : BT.709-5, BT.1361, IEC 61966-2-4 709, SMPTE RP177

Audio #1
ID                               : 2
Format                           : AC-3
Format/Info                      : Audio Coding 3
Mode extension                   : CM (complete main)
Codec ID                         : A_AC3
Duration                         : 1h 28mn
Bit rate mode                    : Constant
Bit rate                         : 640 Kbps
Channel(s)                       : 6 channels
Channel positions                : Front: L C R, Side: L R, LFE
Sampling rate                    : 48.0 KHz
Bit depth                        : 16 bits
Compression mode                 : Lossy
Stream size                      : 405 MiB (7%)
Title                            : 5.1 [640 Kbps] дубльований, Blu-ray CEE
Language                         : Ukrainian
Default                          : Yes
Forced                           : No

Audio #2
ID                               : 3
Format                           :
Format/Info                      : Digital Theater Systems
Codec ID                         : A_DTS
Duration                         : 1h 28mn
Bit rate mode                    : Constant
Bit rate                         : 1 510 Kbps
Channel(s)                       : 6 channels
Channel positions                : Front: L C R, Side: L R, LFE
Sampling rate                    : 48.0 KHz
Bit depth                        : 16 bits
Compression mode                 : Lossy
Stream size                      : 957 MiB (16%)
Title                            : 5.1 [1510 Kbps] - оригінал
Language                         : English
Default                          : No
Forced                           : No

Audio #3
ID                               : 4
Format                           : AC-3
Format/Info                      : Audio Coding 3
Format profile                   : Dolby Digital
Mode extension                   : CM (complete main)
Codec ID                         : A_AC3
Duration                         : 1h 28mn
Bit rate mode                    : Constant
Bit rate                         : 192 Kbps
Channel(s)                       : 2 channels
Channel positions                : Front: L R
Sampling rate                    : 48.0 KHz
Bit depth                        : 16 bits
Compression mode                 : Lossy
Stream size                      : 122 MiB (2%)
Title                            : 2.0 [192 Kbps] - коментарі творців
Language                         : English
Default                          : No
Forced                           : No

Text #1
ID                               : 5
Format                           : UTF-8
Codec ID                         : S_TEXT/UTF8
Codec ID/Info                    : UTF-8 Plain Text
Title                            : форсовані
Language                         : English
Default                          : No
Forced                           : No

Text #2
ID                               : 6
Format                           : UTF-8
Codec ID                         : S_TEXT/UTF8
Codec ID/Info                    : UTF-8 Plain Text
Language                         : English
Default                          : No
Forced                           : No

Text #3
ID                               : 7
Format                           : UTF-8
Codec ID                         : S_TEXT/UTF8
Codec ID/Info                    : UTF-8 Plain Text
Title                            : коментарі творців
Language                         : English
Default                          : No
Forced                           : No

Menu
00:00:00.000                     : en:00:00:00.000
00:04:26.057                     : en:00:04:26.057
00:07:45.340                     : en:00:07:45.340
00:16:20.188                     : en:00:16:20.188
00:21:11.812                     : en:00:21:11.812
00:24:49.988                     : en:00:24:49.988
00:30:29.828                     : en:00:30:29.828
00:35:31.755                     : en:00:35:31.755
00:40:04.944                     : en:00:40:04.944
00:45:23.930                     : en:00:45:23.930
00:52:30.731                     : en:00:52:30.731
00:57:21.563                     : en:00:57:21.563
01:02:53.937                     : en:01:02:53.937
01:07:43.726                     : en:01:07:43.726
01:12:18.501                     : en:01:12:18.501
01:16:41.430                     : en:01:16:41.430




Джерело:


 Трекер:    Зареєстрований   

Завантажити / скачати фільм українською



відео для новачків



 Зареєстрований:   2012-04-18 15:50
 Розмір:   5.75 GB 
 Оцінка фільму:   9.4/10 (Голосів: 16)
   
respect14 
VIP


З нами з: 26.01.11
Востаннє: 02.12.16
Повідомлень: 376

2012-04-18 19:49  
оо велике мерсі) але зробіть ше хто може менший розмір!
ratbol 
Модератор HD


З нами з: 03.02.09
Востаннє: 01.12.16
Повідомлень: 1088

2012-04-18 19:51  
respect14
Куди вже менший? Happy

SonicZero 
Новенький


З нами з: 01.06.10
Востаннє: 02.08.15
Повідомлень: 6

2012-04-18 20:06  
720 p =)
respect14 
VIP


З нами з: 26.01.11
Востаннє: 02.12.16
Повідомлень: 376

2012-04-18 23:12  
ratbol
в три рази менший)) на 1.8 чи 2.3 хоча моя кохана Кейт Бекінсейл заслуговує і на 5.75 )) та все ж

Sensetivity 
VIP


З нами з: 03.05.11
Востаннє: 03.01.13
Повідомлень: 2019

2012-04-18 23:27  
respect14
Ви помилились розділом.

respect14 
VIP


З нами з: 26.01.11
Востаннє: 02.12.16
Повідомлень: 376

2012-04-19 01:46  
Sensetivity
я в курсі) просто тут фільм тому в коментах і пишу

Drool 
VIP


З нами з: 17.04.10
Востаннє: 03.12.16
Повідомлень: 1262

2012-04-19 07:42  
Наразі готую ріп 720p-mini (1280x532) запланованою вагою 2,2 гектари.
Скріншоти




Кодування скінчиться через 7,5 годин, але оформити реліз сьогодні вже не встигну, мабуть. Якщо ніхто не зробить швидше - завтра викладу.

LiquidatorFX 
Свій


З нами з: 01.12.11
Востаннє: 11.05.16
Повідомлень: 100

2012-04-19 21:00  
Drool

Це вже голiмий рiп буде...аж на 2 гектари Tongue out (1)

Drool 
VIP


З нами з: 17.04.10
Востаннє: 03.12.16
Повідомлень: 1262

2012-04-20 14:30  
LiquidatorFX написано:
Це вже голiмий рiп буде...аж на 2 гектари 

А Ви впевнені, що всім потрібні ріпи на 1080? Мені - ні. А от на 720p-mini - якраз.

latydak 
Новенький


З нами з: 26.04.10
Востаннє: 01.12.16
Повідомлень: 13

2012-04-21 21:31  
Не знаю як ви кодували чи це так має бути(наврядчи), але чорне не чорне це ж очевидно. Дивлюся через MPC HC там є така штука як "Шейдери" в контекстному меню, так от для того щоб чорне стало чорним потрібно добавити і ввімкнути шейдер "16-235 -> 0-255 [SD] [HD]". Може спеціалісти по відео пояснять в чому тут суть, але мені по факту так більше подобається
telos 
Свій


З нами з: 19.04.11
Востаннє: 22.11.16
Повідомлень: 50

2012-04-22 15:08  
Після перегляду цього фільму в аймаксі-на компютері він не виглядає таким крутим.
хоча в кінотеатрі було навіть трохи страшнувато)

Ua.bos_01 
VIP


З нами з: 22.06.15
Востаннє: 03.12.16
Повідомлень: 1290

2015-08-18 14:46  
Перші дві частини переглядав рази по три-чотири. Третя частина - занадто награна, не дуже пішла. Щодо четвертої частини, то тут трішки автори виправили ситуацію. хоча звісно є надто нереальні навіть для вампірів речі. Загалом дана частина саги мені сподобалась. Раджу до перегляду.
Ваш часовий пояс: GMT + 2 Години

Нова тема   Відповісти