Завантажити та скачати торренти українською


Фантом / The Darkest Hour (2011) AVC Ukr/Eng

Нові коментарі

Нова тема   Відповісти
Автор Повідомлення
Anonymous 







2012-04-17 23:06  
Фантом / The Darkest Hour (2011) AVC Ukr/Eng

Фантом / The Darkest Hour (2011) AVC Ukr/Eng


Жанр: фантастика, триллер
Країна: США, Росія



Кіностудія / кінокомпанія: New Regency Pictures, Regency Enterprises, Summit Entertainment
Режисер: Кріс Горак
Актори: Еміль Хірш, Олівія Тірлбі, Макс Мінгелла, Рейчел Тейлор, Йоель Чіннаман, Вероніка Вернадська, Дато Бахтадзе, Гоша Куценко, Микола Єфремов, Артур Смольянінов

Сюжет:
Фільм розповість про чотирьох американських туристів, що опинилися в Москві в момент нападу на неї інопланетян.


Тривалість: 01:28:58
Якість:
Відео:
кодек:
розмір кадру: 1040x432
бітрейт: 1900 кб/с

Аудіо # 1:
мова: українська
переклад: професійний дубльований
кодек: 5.1
бітрейт: 384 кб/с

Аудіо # 2:
мова: англійська
переклад: оригінал
кодек: 5.1
бітрейт: 448 кб/с

Джерело озвучення:


Скріншоти





Джерело: &
Особиста оцінка: 0 - не дивився


 Трекер:    Зареєстрований   

Завантажити / скачати фільм українською



відео для новачків



 Зареєстрований:   2012-04-17 23:06
 Розмір:   1.7 GB 
 Оцінка фільму:   7/10 (Голосів: 29)
   
Інші релізи
LOLOLO 
Свій


З нами з: 04.03.10
Востаннє: 28.11.16
Повідомлень: 128

2012-04-18 08:09  
Страшенна маячня. Тобто ідея цікава - з тими іншопланетними прибульцями, але як то кажуть, не вміли-сьте кумо подати.. Нагадав мені Штольню.. Таке ж г...но тільки зі спецефектами крутішими. Ну і шедевральні фрази "Ета Рассссссссссссєя!".. "а патом ми іх руссссссссссссскімі пулямі"... і "за намі Масссссссссква"....

Або Бекмамбет постібався з московитів, або просто "забив болт"...

все починається як традиційний дешевий маладзьожний хоррор.. Дві - три пари тінейджерів, яких щось починає мочити... Дивився заради того, аби побачити, як кремль розвалять... облом. Не показали.

Куценко тут також не найліпший.. Хоча якраз в тему до кіна. Таке собі жувало для середнього шкільного віку.

За старання Vasua95 треба подякувати (я, правда, качав на іншому трекері), але часу не вартує..

jigitos 
Свій


З нами з: 28.11.10
Востаннє: 17.10.16
Повідомлень: 124

2012-04-18 17:00  
а як на мене, то хороший фільм! всяке може, трапитись, і треба бути готовим до всього))
TRO[9]N 
Відео Гуртом - озвучення
Відео Гуртом - озвучення


З нами з: 09.06.11
Востаннє: 27.11.16
Повідомлень: 618

2012-04-18 19:50  
а це нічого що в мене тільки оригінальна доріжка?
Anonymous 







2012-04-18 20:53  
TRO[9]N
в мене все нормально провіряв

TRO[9]N 
Відео Гуртом - озвучення
Відео Гуртом - озвучення


З нами з: 09.06.11
Востаннє: 27.11.16
Повідомлень: 618

2012-04-18 21:43  
блін на звичайному плеєрі не показує!(
sychiv 
Новенький


З нами з: 12.11.10
Востаннє: 22.11.16
Повідомлень: 24

2012-04-18 22:07  
Все нове - це добре забуте старе: ідея Війна світів Герберта Уеллса, фільм Стівена Спілберга.
М_а_м_а_Й 
VIP


З нами з: 12.08.11
Востаннє: 07.12.16
Повідомлень: 375

2012-04-18 22:59  
Як на мене, до Герберта Уеллса цьому фільму дуже й дуже далеко - у Уеллса - живі персонажі і трагедія, тут усе пласко та шаблонно
Blitzkrieg 
Новенький


З нами з: 21.02.10
Востаннє: 06.12.16
Повідомлень: 11

2012-04-19 10:37  
Скачав. Продивився. Згоден, повний шаблон. Особливо мене россмішив (вбив) ракетний катер та атомний підводний чьовен у Москві-річці, ну і ще багацько таких подібних ляпів.
P.S Куцого так і не вбили під кінець, а я так сподівався! (ну не подобається він мені як актор).

IVAN9606 
Свій


З нами з: 02.08.11
Востаннє: 25.10.16
Повідомлень: 73

2012-04-19 20:10  
Доброго дня.
Скачав цей фільми з цієї теми.
Чому у мене англ. мова?

М_а_м_а_Й 
VIP


З нами з: 12.08.11
Востаннє: 07.12.16
Повідомлень: 375

2012-04-19 23:23  
IVAN9606
Цитата:
Чому у мене англ. мова?


Бо тут є дві доріжки Happy Перемкніть на другу доріжку і буде Вам Українська

Віктор 
Відео Гуртом - субтитрування
Відео Гуртом - субтитрування


З нами з: 09.01.10
Востаннє: 08.12.16
Повідомлень: 8663

2012-04-19 23:40  
М_а_м_а_Й написано:
Перемкніть на другу доріжку і буде Вам Українська

За правилами, першою якраз і повинна йти українська.

ValTriK 
Поважний учасник


З нами з: 18.12.11
Востаннє: 16.11.16
Повідомлень: 238

2012-04-19 23:48  
w2958l написано:
За правилами, першою якраз і повинна йти українська.

Так і є.
D:\The Darkest Hour (2011) AVC [Ukr.Eng] [Hurtom] by Vasua95.mkv\The Darkest Hour (2011) AVC [Ukr.Eng] [Hurtom] by Vasua95.mkv
General
Complete name : D:\The Darkest Hour (2011) AVC [Ukr.Eng] [Hurtom] by Vasua95.mkv\The Darkest Hour (2011) AVC [Ukr.Eng] [Hurtom] by Vasua95.mkv
Format : Matroska
File size : 1.70 GiB
Duration : 1h 28mn
Overall bit rate : 2 732 Kbps
Movie name : The Darkest Hour 2011 BluRay Remux 1080p AVC -HD MA5.1-aZA
Encoded date : UTC 2012-04-17 20:41:30
Writing application : mkvmerge v4.9.1 ('Ich will') зібрано Jul 11 2011 23:53:15
Writing library : libebml v1.2.1 + libmatroska v1.1.1
Video #1
ID : 1
Format : AVC
Format/Info : Advanced Video Codec
Format profile : [email protected]
Format settings, CABAC : Yes
Format settings, ReFrames : 6 frames
Muxing mode : Container [email protected]
Codec ID : V_MPEG4/ISO/AVC
Duration : 1h 28mn
Bit rate : 1 846 Kbps
Nominal bit rate : 1 900 Kbps
Width : 1 040 pixels
Height : 432 pixels
Display aspect ratio : 2.35:1
Original display aspect ratio : 2.35:1
Frame rate mode : Variable
Frame rate : 23.976 fps
Resolution : 8 bits
Colorimetry : 4:2:0
Scan type : Progressive
Bits/(Pixel*Frame) : 0.171
Stream size : 1.15 GiB (67%)
Writing library : core 116 r2019M 9cc407d
Encoding settings : cabac=1 / ref=7 / deblock=1:-2:-1 / analyse=0x3:0x133 / me=umh / subme=9 / psy=1 / psy_rd=1.00:0.00 / mixed_ref=1 / me_range=40 / chroma_me=1 / trellis=1 / 8x8dct=1 / cqm=0 / deadzone=21,11 / fast_pskip=0 / chroma_qp_offset=-2 / threads=8 / sliced_threads=0 / nr=0 / decimate=1 / interlaced=0 / bluray_compat=0 / constrained_intra=0 / bframes=8 / b_pyramid=1 / b_adapt=2 / b_bias=0 / direct=3 / weightb=1 / open_gop=0 / weightp=2 / keyint=250 / keyint_min=23 / scenecut=45 / intra_refresh=0 / rc_lookahead=100 / rc=2pass / mbtree=1 / bitrate=1900 / ratetol=1.0 / qcomp=0.60 / qpmin=10 / qpmax=51 / qpstep=4 / cplxblur=20.0 / qblur=0.7 / ip_ratio=1.37 / aq=1:1.20
Audio #2
ID : 2
Format : AC-3
Format/Info : Audio Coding 3
Codec ID : A_AC3
Duration : 1h 28mn
Bit rate mode : Constant
Bit rate : 384 Kbps
Channel(s) : 6 channels
Channel positions : Front: L C R, Surround: L R, LFE
Sampling rate : 48.0 KHz
Video delay : 28ms
Stream size : 244 MiB (14%)
Language : Ukrainian
Audio #3
ID : 3
Format : AC-3
Format/Info : Audio Coding 3
Codec ID : A_AC3
Duration : 1h 28mn
Bit rate mode : Constant
Bit rate : 448 Kbps
Channel(s) : 6 channels
Channel positions : Front: L C R, Surround: L R, LFE
Sampling rate : 48.0 KHz
Stream size : 285 MiB (16%)
Дивно що MediaInfo не вимагається правилама, було б краще

IVAN9606 написано:
Чому у мене англ. мова?

Програвач чомусь відкрив не ту аудіодоріжку , треба перемкнути на іншу.
В КМП плеєрі це CTRL+X, раджу цей плеєр

afdaser 
Свій


З нами з: 21.09.10
Востаннє: 05.12.16
Повідомлень: 108

2012-04-23 15:40  
скачав, вилаявся на того хто такі релізи робить, удалив.
нащо було першою англійську ставити? старі плеєри це переключити неможуть а через кмп після переключення на українську доріжку відбувається спотворення відео, воно зависає і чути тільки звук, "дякую" автор

IgorN95 
Поважний учасник


З нами з: 22.05.11
Востаннє: 07.12.16
Повідомлень: 194

2012-04-23 18:01  
afdaser
Ви знаєте а в мене все гарно пішло. І через Windows Media і Через KMP.
Я не сильно шарю в тих дорожках, яка перша яка друга... Просто відкрив і все супер.

andrewz 
Новенький


З нами з: 17.02.10
Востаннє: 02.12.16
Повідомлень: 23

2012-05-31 23:34  
в мене плеєр (Media Player Classic з комплекту K-Lite Codecs) теж "показує" лише одну звукову доріжку, й можливості змінити немає.
хоча в інших фільмах (для прикладу перший який попався під руку RocknRolla (2008) [ukr,eng] [ Hurtom ] by Jatx.avi) тим самим плеєром є на вибір дві доріжки й перемикання відбувається без проблем.

IgorN95 
Поважний учасник


З нами з: 22.05.11
Востаннє: 07.12.16
Повідомлень: 194

2012-06-01 14:34  
andrewz
а Windows Media у вас є? Ви ним пробували?

Drool 
VIP


З нами з: 17.04.10
Востаннє: 08.12.16
Повідомлень: 1270

2013-06-06 19:50  
ValTriK написано:
Програвач чомусь відкрив не ту аудіодоріжку , треба перемкнути на іншу.

Тому що друга, англійська доріжка, помічена флажком як доріжка за замовчанням. Тому на неї й кидається KMP.

Ваш часовий пояс: GMT + 2 Години

Нова тема   Відповісти