Завантажити та скачати торренти українською


Бірфест [Розширена і Театральна версії] / Beerfest (2006) 1080p [Unrated + Theatrical] Ukr/Eng-Ger

Нові коментарі

Нова тема   Відповісти
Автор Повідомлення
urij546724 
Відео Гуртом - фільмокрай
Відео Гуртом - фільмокрай


З нами з: 16.03.10
Востаннє: 08.12.16
Повідомлень: 5222

2012-04-17 18:11  
Бірфест [Розширена і Театральна версії] / Beerfest [Unrated + Theatrical] (2006) 1080p Ukr/Eng-Ger


Альтернативний постер
Слогани:
«From the comic geniuses who brought you the phenomenon "Super Troopers"
«Від генія комедії, який створив для тебе "Супер патруль"
«Сильна печінка і воля до перемоги - це все що треба, щоб виграти пивні ігри.»


Жанр: комедія
Країна: США (), Австралія ()



Кінокомпанія / телеканал: Warner Bros. Pictures, Legendary Pictures, Gerber Pictures
Режисер: Джей Чандрашекхар (Jay Chandrasekhar)
Актори: М. К. Гейні (MC Gainey), Пол Сотер (Paul Soter), Ерік Столханске (Erik Stolhanske), Клоріс Лічмен (Cloris Leachman), Юрген Прохнов (Jürgen Prochnow), Кемерон Шер (Cameron Scher)
Усі актори і їх фото:
М. К. Гейні (MC Gainey), Пол Сотер (Paul Soter), Ерік Столханске (Erik Stolhanske), Клоріс Лічмен (Cloris Leachman), Юрген Прохнов (Jürgen Prochnow), Кемерон Шер (Cameron Scher), Овайн Йомен (Owain Yeoman), Том Тейт (Tom Tate), Аллан Граф (Allan Graf), Крістофер Мосс (Christopher Moss), Бьорн Джонсон (Bjorn Johnson), Кевін Хеффернан (Kevin Heffernan), Джей Чандрашекхар (Jay Chandrasekhar), Стів Лемм (Steve Lemme), Коллін Торнтон (Collin Thornton), Пеб Швендіманн (Pab Schwendimann), Філіп Бреннінкмеєр (Philippe Brenninkmeyer), Джесіка Вільямс (Jessica Williams), Стівен Майкл Квезада (Steven Michael Quezada), Аарон Хендрі (Aaron Hendry), Майкл Юрчак (Michael Yurchak), Вілл Форте (Will Forte), Нат Факсон (Nat Faxon), Ерік Крістіан Олсен (Eric Christian Olsen), Ральф Меллер (Ralf Moeller), Ґюнтер Шлєркамп (Gunter Schlierkamp), Бленчард Райан (Blanchard Ryan), Ісаак Кеппі (Isaac Kappy), Мо'Нік (Mo'Nique), Роббі Вашингтон (Robbie Washington), Ліан Крістен (Leanna Kristen), Одрі Марі Андерсон (Audrey Marie Anderson), Меган Робінсон (Megan Robinson), Аарон Шівер (Arron Shiver), Джастін Оксрідер (Justin Ocksrider), Ембер Хей (Amber Hay), Гален Хатчинсон (Galen Hutchinson), Джеймс Родей (James Roday), Марія Біювеїс (Marya Beauvais), Анна Лейн (Anna Lane), Кендес Сміт (Candace Smith), Бріттні Хіггінс (Brittney Higgins), Сара Фіготен (Sarah Figoten), Марк Мушет (Marc Mouchet), Сімона Фуско (Simona Fusco), Джеймс Грейс (James Grace), Том Карвер (Tom Carver), Бен Зеллер (Ben Zeller), Іван Брутче (Ivan Brutsche), Сабріна Явір (Sabrina Jàvor), Рохіт Сенг (Rohit Sang), Річард Переллі (Richard Perello), Гарі Канін (Gary Kanin), Денніс Габбінса (Dennis Gubbins), Ден Фей (Dan Fey), Артист В. Робінсон (Artist W. Robinson), Крістофер Хейген (Christopher Hagen), Хлоя Расселл (Chloe Russell), Кімберлі Боссо (Kimberly Bosso), Дейв Колон (Dave Colon), Фортунато Фраттасіо (Fortunato Frattasio), Брайан Хадсон (Brian Hudson), Люкс Кессіді (Lux Cassidy), Чонталі Льюіс (Chauntal Lewis), Віллі Нельсон (Willie Nelson), Логан Стіл (Logan Steele), Дональд Сазерленд (Donald Sutherland), З. Рей Вейкман (Z. Ray Wakeman)








Сюжет:
Американці Тодд і Ян Вулфхаус приїжджають до Німеччини на щорічний фестиваль пива «Октоберфест» щоб розвіяти тут прах свого дідуся. Тут вони випадково потрапляють на супер-секретні пивні ігри, такі собі олімпійські ігри по розпиванню пінного напою. Братів дочиста обігрують, напоївши їх до несвідомого стану. Але хлопці обіцяють повернутися через рік, щоб взяти реванш. У себе на батьківщині вони збирають команду любителів пива, що складається з завзятих пияків. Сильна печінка і воля до перемоги - це все що треба, щоб виграти пивні ігри...


Попередження:
Учасники фільму є професіоналами. Не намагайтеся повторити цього вдома. Якщо ви спробуєте випити стільки ж,... то помрете!


Бюджет: 17 500 000 доларів
Збори в США: 19 185 184 долари
Збори у світі: 20 387 597 доларів
DVD в США: 13 737 782 долари

Розширена версія на 10 хвилин довша, але оскільки Новий показував практично цю версію, то без перекладу всього 55 фраз.


Перемикання Unrated/Ordinary здійснюється в меню Haali Media Splitter (значок в треї). За замовчуванням відтворюється Unrated версія.
Розширена версія сильно відрізняється від театральної, оскільки завершена сюжетна лінія і фільм виглядає уже по іншому.
Назва фільму в інших країнах
Beerfest
Аргентина (Назва на DVD)


Bierfest
Німеччина


Eis ygeian!
Греція (Назва на DVD)


La fiesta de la cerveza
Іспанія


Sörcsata
Угорщина


Swieto piwa
Польща


Пивной бум / Пивной фестиваль
Росія
Media info
Format : Matroska
Format version : Version 2
File size : 8.47 GiB
Duration : 1h 56mn
Overall bit rate : 10.4 Mbps
Movie name : Beerfest (2006) [ukr.Noviy_eng_AC3_5.1, sub ukr] Unrated [Hurtom] by urij546724
Encoded date : UTC 2012-04-17 15:01:36
Writing application : mkvmerge v2.9.7 ('Tenderness') built on Jul 1 2009 18:43:35
Writing library : libebml v0.7.7 + libmatroska v0.8.1
TITLE : ORDINARY version

Video
ID : 1
Format : AVC
Format/Info : Advanced Video Codec
Format profile : [email protected]
Format settings, CABAC : Yes
Format settings, ReFrames : 3 frames
Codec ID : V_MPEG4/ISO/AVC
Duration : 1h 56mn
Bit rate : 9 126 Kbps
Width : 1 920 pixels
Height : 792 pixels
Display aspect ratio : 2.40:1
Frame rate : 23.976 fps
Color space : YUV
Chroma subsampling : 4:2:0
Bit depth : 8 bits
Scan type : Progressive
Bits/(Pixel*Frame) : 0.250
Stream size : 7.26 GiB (86%)
Title : Beerfest Unrated -=Hurtom=-
Writing library : core 65 r998M 6768543
Encoding settings : cabac=1 / ref=3 / deblock=1:-1:-1 / analyse=0x3:0x113 / me=hex / subme=6 / psy_rd=1.0:0.0 / mixed_ref=1 / me_range=16 / chroma_me=1 / trellis=1 / 8x8dct=1 / cqm=0 / deadzone=21,11 / chroma_qp_offset=-2 / threads=3 / nr=0 / decimate=1 / mbaff=0 / bframes=16 / b_pyramid=1 / b_adapt=1 / b_bias=0 / direct=3 / wpredb=1 / keyint=250 / keyint_min=25 / scenecut=40(pre) / rc=2pass / bitrate=9126 / ratetol=1.0 / qcomp=0.60 / qpmin=10 / qpmax=51 / qpstep=4 / cplxblur=20.0 / qblur=0.5 / ip_ratio=1.40 / pb_ratio=1.30 / aq=1:1.00
Language : English
Default : Yes
Forced : No

Audio #1
ID : 2
Format : AC-3
Format/Info : Audio Coding 3
Mode extension : CM (complete main)
Codec ID : A_AC3
Duration : 1h 56mn
Bit rate mode : Constant
Bit rate : 640 Kbps
Channel(s) : 6 channels
Channel positions : Front: L C R, Side: L R, LFE
Sampling rate : 48.0 KHz
Bit depth : 16 bits
Compression mode : Lossy
Stream size : 533 MiB (6%)
Title : Українська доріжка
Language : Ukrainian
Default : Yes
Forced : No

Audio #2
ID : 3
Format : AC-3
Format/Info : Audio Coding 3
Mode extension : CM (complete main)
Codec ID : A_AC3
Duration : 1h 56mn
Bit rate mode : Constant
Bit rate : 640 Kbps
Channel(s) : 6 channels
Channel positions : Front: L C R, Side: L R, LFE
Sampling rate : 48.0 KHz
Bit depth : 16 bits
Compression mode : Lossy
Stream size : 533 MiB (6%)
Title : Англійська доріжка
Language : English
Default : No
Forced : No

Text
ID : 4
Format : UTF-8
Codec ID : S_TEXT/UTF8
Codec ID/Info : UTF-8 Plain Text
Title : Українські субтитри
Language : Ukrainian
Default : Yes
Forced : No

Menu #1
00:00:00.000 : ru:Full

Menu #2
00:00:00.000 : ru:ch1
00:26:29.378 : ru:ch2
00:27:15.257 : ru:ch3
00:28:50.482 : ru:ch4
00:34:47.297 : ru:ch5
00:46:38.217 : ru:ch6
01:06:47.218 : ru:ch7
01:15:04.048 : ru:ch8
01:21:58.118 : ru:ch9
Тривалість: 01:56:27
Якість: 1080p
Відео:
кодек:
розмір кадру: 1920 х 792
бітрейт: ~ 9126 кб/с
частота кадрів: 23.976 к/с (fps)

Аудіо #1:
мова: українська
переклад: двоголосий закадровий
кодек: 5.1
бітрейт: 640 кб/с
озвучено:

Аудіо #2:
мова: англійська-німецька
переклад: оригінал
кодек: 5.1
бітрейт: 640 кб/с

Субтитри (на моменти без озвучки):
мова: українська
тип: програмні (м'які)
формат: *.srt
переклад: з російської urij546724

Скріншоти:

Трейлер:
Семпл:
Джерело 1_________Джерело 2_________Джерело 3_________Джерело 4
У випадку, якщо з усіх джерел семпл видалять, прохання повідомити мені у ПРИВАТ


Подяка:

1. Пану karvai0 за запис звуку з ТБ.


Реліз створено: &

Особиста оцінка: 8 - впринципі тупенька, але цікава комедія, мені сподобалась.

Реліз не зберігатиму, видалю після появи кількох сідів.


 Трекер:    Зареєстрований   

Завантажити / скачати фільм українською



відео для новачків



 Зареєстрований:   2012-04-17 21:27
 Розмір:   8.47 GB 
 Оцінка фільму:   4.3/10 (Голосів: 10)
 Прохання не тікати з роздачі і залишати коментарі.
   
Інші релізи
leroykendall 
Модератор HD


З нами з: 03.01.11
Востаннє: 20.11.16
Повідомлень: 749

2012-04-17 22:51  
Останній скріншот має розмір 1023 × 422. Чи то не скріншот? Happy
Якщо субтитри тільки на моменти без озвучки, то їх в темі і заголовку не трба зазначати.
Дякую за реліз Happy

urij546724 
Відео Гуртом - фільмокрай
Відео Гуртом - фільмокрай


З нами з: 16.03.10
Востаннє: 08.12.16
Повідомлень: 5222

2012-04-17 23:01  
leroykendall написано:
1023 × 422

Дійсно. Видно сайт зменшив, прибрав.
leroykendall написано:
субтитри

Звичка, теж прибрав.

Ваш часовий пояс: GMT + 2 Години

Нова тема   Відповісти