Завантажити та скачати торренти українською


Ліцензія на весілля / License to Wed (2007) 720p Ukr/Eng | sub Ukr/Eng

Нові коментарі

Нова тема   Відповісти
Автор Повідомлення
xfsthe 
Оцифрування книг Гуртом
Оцифрування книг Гуртом


З нами з: 13.02.11
Востаннє: 05.12.16
Повідомлень: 279

2012-04-17 09:02  
Ліцензія на весілля / License to Wed (2007) 720p Ukr/Eng | sub Ukr/Eng

Ліцензія на весілля / License to Wed (2007) 720p Ukr/Eng | sub Ukr/Eng


Жанр: комедія, романтичний
Країна: США, Австралія



Кіностудія / кінокомпанія: Warner Bros. Pictures, Village Roadshow Pictures, Robert Simonds Productions
Режисер: Кен Куопіс
Актори: Робін Вільямс, Менді Мур, Джон Красінскі, Ерік Крістіан Олсен, Крістін Тейлор, Джош Фліттер, ДеРей Девіс

Сюжет:
Молода пара завжди мріяла побратися в сімейній церкві. Проблема в тому, що одруження в цій церкві розписані на два роки вперед. Одружити їх пообіцяли тільки в тому випадку, якщо вони закінчать спеціальні курси та принесуть відповідний диплом.


Тривалість: 01:31:23
Якість: 720p
Відео:
розмір кадру: 1280 х 528
бітрейт: 6 208 кб/с

Аудіо #1:
мова: українська
переклад: двоголосий закадровий: Євген Пашин та Катерина Брайковська
кодек: 5.1
бітрейт: 640 кб/с

Аудіо #2:
мова: англійська
переклад: оригінал
кодек: 5.1
бітрейт: 640 кб/с

Субтитри #1:
мова: українська з російської
тип: програмні (м'які)
формат: *.srt

Субтитри #2:
мова: англійська
тип: програмні (м'які)
формат: *.srt
MediaInfo

General
Unique ID : 106854230501344649358859560139213455228 (0x5063604FFFF0AE36D0C87635D25F3F7C)
Complete name : /media/media/0_my_relises/License to Wed (2007) [ukr,eng] sub[ukr,eng] 720p.mkv
Format : Matroska
Format version : Version 2
File size : 4.78 GiB
Duration : 1h 31mn
Overall bit rate : 7 490 Kbps
Movie name : Ліцензія на шлюб / License to Wed (2007) 720p
Encoded date : UTC 2012-04-14 16:45:47
Writing application : mkvmerge v5.0.1 ('Es ist Sommer') built on Oct 13 2011 14:41:12
Writing library : libebml v1.2.2 + libmatroska v1.3.0

Video
ID : 1
Format : AVC
Format/Info : Advanced Video Codec
Format profile : [email protected]
Format settings, CABAC : Yes
Format settings, ReFrames : 8 frames
Codec ID : V_MPEG4/ISO/AVC
Duration : 1h 31mn
Bit rate : 6 208 Kbps
Width : 1 280 pixels
Height : 528 pixels
Display aspect ratio : 2.40:1
Frame rate : 23.976 fps
Color space : YUV
Chroma subsampling : 4:2:0
Bit depth : 8 bits
Scan type : Progressive
Bits/(Pixel*Frame) : 0.383
Stream size : 3.87 GiB (81%)
Title : Ліцензія на шлюб / License to Wed (2007) 720p
Writing library : core 56 svn-680
Encoding settings : cabac=1 / ref=5 / deblock=1:-3:-2 / analyse=0x1:0 / me=umh / subme=7 / brdo=1 / mixed_ref=1 / me_range=16 / chroma_me=1 / trellis=1 / 8x8dct=0 / cqm=2 / deadzone=21,11 / chroma_qp_offset=0 / threads=4 / nr=0 / decimate=1 / mbaff=0 / bframes=3 / b_pyramid=1 / b_adapt=1 / b_bias=0 / direct=1 / wpredb=1 / bime=1 / keyint=250 / keyint_min=25 / scenecut=40(pre) / rc=2pass / bitrate=6208 / ratetol=1.0 / rceq='blurCplx^(1-qComp)' / qcomp=0.60 / qpmin=10 / qpmax=51 / qpstep=4 / cplxblur=20.0 / qblur=0.5 / ip_ratio=1.40 / pb_ratio=1.30
Language : English

Audio #1
ID : 2
Format : AC-3
Format/Info : Audio Coding 3
Mode extension : CM (complete main)
Codec ID : A_AC3
Duration : 1h 31mn
Bit rate mode : Constant
Bit rate : 640 Kbps
Channel(s) : 6 channels
Channel positions : Front: L C R, Side: L R, LFE
Sampling rate : 48.0 KHz
Bit depth : 16 bits
Compression mode : Lossy
Stream size : 418 MiB (9%)
Title : 5.1 @ 640 kbps | Новий канал
Language : Ukrainian

Audio #2
ID : 3
Format : AC-3
Format/Info : Audio Coding 3
Mode extension : CM (complete main)
Codec ID : A_AC3
Duration : 1h 31mn
Bit rate mode : Constant
Bit rate : 640 Kbps
Channel(s) : 6 channels
Channel positions : Front: L C R, Side: L R, LFE
Sampling rate : 48.0 KHz
Bit depth : 16 bits
Compression mode : Lossy
Stream size : 418 MiB (9%)
Title : 5.1 @ 640 kbps
Language : English

Text #1
ID : 4
Format : UTF-8
Codec ID : S_TEXT/UTF8
Codec ID/Info : UTF-8 Plain Text
Language : Ukrainian

Text #2
ID : 5
Format : UTF-8
Codec ID : S_TEXT/UTF8
Codec ID/Info : UTF-8 Plain Text
Language : English
Світлини:






Джерело: &
Особиста оцінка: не дивився.

Подяка панам:
xslim та karvai0 - запис звуку з ТБ
igrik09 - постер
urij546724 - українські субтитри


 Трекер:    Зареєстрований   

Завантажити / скачати фільм українською



відео для новачків



 Зареєстрований:   2012-04-17 09:02
 Розмір:   4.78 GB 
 Оцінка фільму:   9.5/10 (Голосів: 4)
   
Ваш часовий пояс: GMT + 2 Години

Нова тема   Відповісти